<?xml version="1.0" standalone="no"?>
<!DOCTYPE svg PUBLIC "-//W3C//DTD SVG 1.1//EN" "http://www.w3.org/Graphics/SVG/1.1/DTD/svg11.dtd" >
<svg xmlns="http://www.w3.org/2000/svg">
<metadata>Generated by IcoMoon</metadata>
<defs>
<font id="massive_icons" horiz-adv-x="1024">
<font-face units-per-em="1024" ascent="960" descent="-64" />
<missing-glyph horiz-adv-x="1024" />
<glyph unicode="&#x20;" horiz-adv-x="512" d="" />
<glyph unicode="&#xe900;" glyph-name="accordion" d="M128 960h768v-127h-768v127zM128 704h768v-128h-768v128zM128 64h768v-128h-768v128zM128 448h768v-64h-768v64zM128 256h768v-64h-768v64zM128 960h128v-127h-128v127zM128 704h128v-128h-128v128zM128 64h128v-128h-128v128z" />
<glyph unicode="&#xe901;" glyph-name="additions" d="M448 704h320v-64h-320v64zM576 832h64v-320h-64v320zM960 704h-128v-64h128v-384h-896v384h320v64h-320c-38.4 0-64-25.6-64-64v-384c0-38.4 25.6-64 64-64h896c38.4 0 64 25.6 64 64v384c0 38.4-25.6 64-64 64z" />
<glyph unicode="&#xe902;" glyph-name="alert" d="M512-64c-282.312 0-512 229.688-512 512.031 0 282.312 229.688 511.969 512 511.969s512-229.656 512-511.969c0-282.344-229.688-512.031-512-512.031zM512 896c-247 0-448-200.969-448-447.969 0-247.031 201-448.031 448-448.031s448 201 448 448.031c0 247-201 447.969-448 447.969zM448 702.984h128v-320h-128v320zM448 319.671h128v-128h-128v128z" />
<glyph unicode="&#xe903;" glyph-name="animation" d="M736 704c121.6 0 224-102.4 224-224s-102.4-224-224-224-224 102.4-224 224 102.4 224 224 224zM736 768c-160 0-288-128-288-288s128-288 288-288 288 128 288 288-128 288-288 288v0zM0 512h384v-64h-384v64zM153.6 640h230.4v-64h-230.4v64zM153.6 384h230.4v-64h-230.4v64z" />
<glyph unicode="&#xe904;" glyph-name="animation_block" d="M0 576h640v-640h-640v640zM832 768v-640h-128v512h-512v128zM1024 960v-640h-128v512h-512v128z" />
<glyph unicode="&#xe905;" glyph-name="animation_text" d="M727.058 0c-95.043 0-118.678 36.618-189.724 98.111 0-32.671 0-65.431 0-98.111h-89.333v896h92.141v-359.171c128.861 142.18 309.041 169.248 426.51-6.57 133.418-199.561 26.113-530.259-239.593-530.259-49.23 0 42.054 0 0 0zM700.433 91.984c311.689 0 258.512 541.033-33.819 465.519-61.412-15.768-126.473-88.303-126.473-159.176 0-55.276 0-110.553 0-165.829 16.030-78.322 87.837-140.514 160.292-140.514 31.531 0-19.367 0 0 0zM0 448.264h384v-64.527h-384v64.527zM128 639.703h256v-63.406h-256v63.406zM128 255.703h256v-63.406h-256v63.406z" />
<glyph unicode="&#xe906;" glyph-name="button" d="M960 640v-384h-896v384h896zM1024 704h-1024v-512h1024v512zM192 512h640v-128h-640v128z" />
<glyph unicode="&#xe907;" glyph-name="button_set" d="M704 576v-256h-384v256h384zM768 640h-512v-384h512v384zM384 512h256v-128h-256v128zM0 512h64v-128h-64v128zM960 512h64v-128h-64v128zM0 640v-64h128v-256h-128v-64h192v384zM1024 320h-128v256h128v64h-192v-384h192z" />
<glyph unicode="&#xe908;" glyph-name="call_out" d="M1024-64h-128v64h64v64h64zM742.375-64h-153.625v64h153.625v-64zM435.188-64h-153.625v64h153.625v-64zM128-64h-128v128h64v-64h64zM64 217.625h-64v153.625h64v-153.625zM64 524.812h-64v153.625h64v-153.625zM64 832h-64v128h128v-64h-64zM742.437 896h-153.625v64h153.625v-64zM435.25 896h-153.625v64h153.625v-64zM1024 832h-64v64h-64v64h128zM1024 217.625h-64v153.563h64v-153.563zM1024 524.812h-64v153.594h64v-153.594zM445.938 768h128v-128.031h-128v128.031zM253.938 512h512v-64h-512v64zM253.938 384h512v-64h-512v64zM253.938 256h512v-64h-512v64z" />
<glyph unicode="&#xe909;" glyph-name="carousel_anything" d="M704 704v-512h-384v512h384zM736 768h-448c-17.6 0-32-14.4-32-32v-576c0-17.6 14.4-32 32-32h448c17.6 0 32 14.4 32 32v576c0 17.6-14.4 32-32 32v0zM128 704h64v-512h-64v512zM832 704h64v-512h-64v512zM960 640h64v-384h-64v384zM0 640h64v-384h-64v384z" />
<glyph unicode="&#xe90a;" glyph-name="carousel_blog" d="M704 704.126v-512.253h-384v512.253h384zM736 768.126h-448c-17.6 0-32-14.401-32-32v-576.253c0-17.601 14.4-32 32-32h448c17.6 0 32 14.399 32 32v576.253c0 17.599-14.4 32-32 32v0zM384 640.001h128v-64h-128v64zM384 512.001h256v-128h-256v128zM384 320.001h256v-64h-256v64zM830.003 704.001h64v-512h-64v512zM960 640.001h64v-384h-64v384zM130.003 704.001h64v-512h-64v512zM0 640.001h64v-384h-64v384z" />
<glyph unicode="&#xe90b;" glyph-name="carousel_image" d="M735.744 768.102h-447.488c-17.613 0-32.010-14.397-32.010-31.99v-576.225c0-17.592 14.397-31.99 32.010-31.99h447.488c17.613 0 32.010 14.397 32.010 31.99v576.225c0 17.592-14.397 31.99-32.010 31.99zM703.754 308.879l-96.625 139.141-131.543-203.305-69.222 107.295-86.118-133.161v485.253h383.508v-395.223zM128.377 704.016h63.937v-512h-63.937v512zM0 640.016h64.063v-384h-64.063v384zM830.687 704.016h63.937v-512h-63.937v512zM960 640.016h64v-384h-64v384zM513.497 576.016c0-35.312-28.563-64-64-64v0c-35.187 0-64 28.688-64 64v0c0 35.344 28.813 64.031 64 64.031v0c35.437 0.002 64-28.686 64-64.031v0z" />
<glyph unicode="&#xe90c;" glyph-name="carousel_slider" d="M256 768v-640h512v640h-512zM704 320h-384v384h384v-384zM1024 640v64h-128v-512h128v192h-64v256zM0 704v-64h64v-256h-64v-192h128v512zM384 640h64v-128h-64v128zM575.686 512h64v-128h-64v128zM448 640h64v-64h-64v64zM512 448h64v-64h-64v64z" />
<glyph unicode="&#xe90d;" glyph-name="carousel_testimonials" d="M704 704v-512h-384v512h384zM736 768h-448c-17.6 0-32-14.4-32-32v-576c0-17.6 14.4-32 32-32h448c17.6 0 32 14.4 32 32v576c0 17.6-14.4 32-32 32v0zM1024 192h-127.188v512h127.188v-64h-55.374v-384h55.374zM0 704h128v-512h-128v64h59.186l0.563 384h-59.75zM636.16 576v-128h-188.16l-64-64v192z" />
<glyph unicode="&#xe90e;" glyph-name="charts" d="M512-64c-282.313 0-512 229.687-512 512 0 17.687 14.313 32 32 32s32-14.313 32-32c0-246.999 201.001-448 448-448s448 201.001 448 448c0 247.032-201.001 448-448 448-17.687 0-32 14.313-32 32s14.313 32 32 32c282.313 0 512-229.687 512-512s-229.687-512-512-512zM493.849 583.612c0-42.723-11.889-75.858-35.322-99.404-23.601-23.546-53.801-35.32-90.939-35.32-37.13 0-67.5 11.774-90.774 35.32-23.431 23.546-35.152 56.68-35.152 99.404 0 40.296 11.383 72.823 34.327 97.583 22.942 24.76 53.471 37.14 91.929 37.14 37.958 0 68.327-12.38 91.439-37.14 22.931-24.76 34.492-57.287 34.492-97.583zM757.914 707.777l-438.020-518.463h-51.165l437.033 518.463c0 0 52.152 0 52.152 0zM431.133 583.612c0 31.678-5.452 57.61-16.015 77.799-10.723 20.228-26.405 30.343-47.202 30.343-21.285 0-37.13-10.115-47.692-30.343-10.564-20.187-15.843-46.121-15.843-77.799 0-32.406 5.28-58.501 16.003-78.365 10.564-19.866 26.407-29.778 47.204-29.778 20.793 0 36.477 9.912 47.37 29.778 10.723 19.864 16.175 45.959 16.175 78.365zM782.334 312.306c0-42.721-11.721-75.813-35.314-99.361-23.439-23.548-53.809-35.281-90.939-35.281-37.138 0-67.338 11.733-90.771 35.281-23.441 23.548-35.16 56.642-35.16 99.361 0 40.296 11.559 72.864 34.333 97.624 22.942 24.76 53.641 37.14 91.931 37.14 37.956 0 68.325-12.38 91.431-37.14 22.94-24.76 34.49-57.328 34.49-97.624zM719.62 312.306c0 31.719-5.444 57.653-16.005 77.84-10.732 20.228-26.407 30.343-47.2 30.343-21.295 0-37.14-10.115-47.702-30.343-10.564-20.187-15.673-46.121-15.673-77.84 0-32.365 5.28-58.421 15.843-78.324 10.723-19.902 26.409-29.778 47.202-29.778 20.795 0 36.639 9.878 47.362 29.778 10.729 19.902 16.173 45.959 16.173 78.324z" />
<glyph unicode="&#xe90f;" glyph-name="connected_icons" d="M192 512h128v-128h-128v128zM384 896v-256h-256v256h256zM448 960h-384v-384h384v384zM576 832h384v-64h-384v64zM640 704h256v-64h-256v64zM384 256v-256h-256v256h256zM448 320h-384v-384h384v384zM576 192h384v-64h-384v64zM640 64h256v-64h-256v64z" />
<glyph unicode="&#xe910;" glyph-name="countdown" d="M448.417 64h64v-64h-64v64zM512.417 64h64v-64h-64v64zM576.417 0v64h64zM384.417 64h64v-64zM448.417 0h64v-64zM512.417-64v64h64zM125.965 265.38l246.279 587.683h-323.827v97.087h430.775v-76.919l-245-607.851h-108.226zM763.818 960c59.056 0 105.84-14.915 140.183-44.791s51.557-69.79 51.557-119.835c0-70.353-38.348-126.307-115.044-167.909 48.83-26.875 83.598-55.204 104.136-84.893 20.623-29.689 30.934-62.849 30.934-99.432 0-56.611-18.918-101.918-56.67-136.016s-88.882-51.123-153.392-51.123c-67.578 0-119.986 15.947-157.226 47.84s-55.818 77.060-55.818 135.547c0 38.131 9.715 72.464 29.144 102.95 19.515 30.486 51.386 57.596 95.699 81.375-38.092 24.999-65.191 51.452-81.383 79.264s-24.287 59.097-24.287 93.804c0 49.716 17.725 89.348 53.261 118.897s81.809 44.322 138.905 44.322zM648.348 443.139c0-32.503 10.397-57.783 31.104-75.747s48.83-26.969 84.365-26.969c36.643 0 65.106 9.287 85.388 27.907 20.367 18.62 30.508 43.853 30.508 75.747 0 25.327-9.374 48.45-28.122 69.415s-47.125 40.336-85.218 58.159l-12.357 6.097c-37.496-18.151-64.51-38.084-80.957-59.8s-24.713-46.668-24.713-74.809zM762.966 875.107c-28.377 0-51.301-7.739-68.6-23.217s-25.991-36.49-25.991-63.083c0-16.275 3.153-30.815 9.374-43.619s15.339-24.483 27.27-34.942c11.93-10.459 32.127-23.076 60.504-37.756 34.087 16.556 58.118 34.004 72.264 52.296 13.976 18.292 21.049 39.632 21.049 64.021 0 26.593-8.777 47.606-26.162 63.083-17.555 15.478-40.734 23.217-69.708 23.217z" />
<glyph unicode="&#xe911;" glyph-name="counter" d="M203.948 192h-72.533v401.244c0 33.386 0 44.908 0 94.728-5.041-5.391-7.777-11.052-14.042-16.943s-34.78-30.921-85.689-75.089l-31.683 43.898 130.902 130.924h72.533l0.512-578.762zM347.236 192l199.84 506.126h-271.295v72.345h361.271v-51.214l-205.276-527.257h-84.54zM969.459 708.388c-15.614 0.848-35.607 0-57.297-3.497-119.681-19.923-184.043-104.217-197.042-197.051h2.614c26.847 35.572 73.758 65.068 136.213 65.068 99.757 0 170.054-72.027 170.054-182.206 0-103.255-70.296-198.702-187.434-198.702-120.599 0-199.515 93.717-199.515 240.35 0 111.061 39.846 198.667 95.377 254.198 46.911 45.993 110.355 71.295 181.5 79.949 22.537 3.497 41.613 4.345 55.531 4.345v-62.454zM946.78 386.357c0 80.682-45.993 129.289-116.289 129.289-45.993 0-88.453-28.648-109.295-69.413-5.228-8.69-8.69-19.959-8.69-33.841 1.766-92.869 44.227-161.399 124.061-161.399 65.987 0 110.214 54.683 110.214 135.365z" />
<glyph unicode="&#xe912;" glyph-name="cube_box" d="M704 64v-64h-704v896h704v-64h-640v-768h576zM956.16 636.801c-43.595 49.129-72.961 67.199-156.801 67.199h-95.359v-512h78.719c86.402 4.48 128.641 16.641 170.883 65.922 42.879 48.641 70.398 109.437 70.398 193.918 0 79.359-26.078 137.899-67.84 184.961zM782.719 262.402h-14.719v371.84h28.16c113.918 0 150.398-63.359 150.398-186.242 0-125.437-40.32-185.598-163.84-185.598zM506.223 192c-41.6 0-73.224 11.287-94.933 33.891-21.584 22.604-32.439 54.256-32.439 95.017v16.643h68.706v-10.894c0.188-12.497 1.192-23.209 3.012-32.076 1.757-8.866 4.643-17.157 8.784-24.813 4.016-7.656 10.039-13.405 17.82-17.248 7.906-3.843 17.569-5.749 29.051-5.749 9.851 0 18.322 1.452 25.412 4.388s12.863 6.96 17.255 12.104c4.392 5.144 7.843 11.741 10.353 19.82s4.267 16.492 5.145 25.267c1.004 8.775 1.443 19.124 1.443 31.017 0 28.233-5.271 50.322-15.875 66.269-10.541 15.947-27.859 24.722-51.89 26.326-1.694 0.212-4.894 0.303-9.725 0.303v66.27h8.784c24.659 0.817 42.29 7.020 52.831 18.61 10.604 11.59 15.875 30.805 15.875 57.645 0 24.601-4.267 43.272-12.863 55.981s-23.843 19.064-45.804 19.064c-11.733 0-21.459-1.906-29.365-5.749-7.78-3.843-13.867-9.592-18.196-17.248-4.267-7.656-7.278-16.038-9.035-25.116-1.82-9.078-2.824-19.972-3.012-32.681v-9.986h-68.706v16.643c0 40.548 10.855 72.079 32.627 94.563s53.647 33.74 95.686 33.74c41.851 0 73.537-11.348 95.247-34.043 21.584-22.695 32.439-54.408 32.439-95.168 0-29.443-6.588-53.409-19.765-71.868s-31.373-31.017-54.588-37.674c23.655-7.262 41.914-21.636 54.902-43.121s19.451-49.082 19.451-82.761c0-46.601-10.353-82.822-31.059-108.634s-53.208-38.733-97.569-38.733z" />
<glyph unicode="&#xe913;" glyph-name="divider" d="M704 448h320v-64h-320v64zM0 448h320v-64h-320v64zM607.936 416c0-52.966-42.938-95.904-95.904-95.904s-95.904 42.938-95.904 95.904c0 52.966 42.938 95.904 95.904 95.904s95.904-42.938 95.904-95.904z" />
<glyph unicode="&#xe914;" glyph-name="dropcaps" d="M167.219 726.687v116.25c110.687 78 221.688 117.062 332.875 117.062 109.094 0 194.531-32.438 256.156-97.25 35.373-35.375 57.126-70.813 65.248-106.25 8.25-35.812 12.314-85.687 12.314-150l-6.31-245.937c0-17.375-0.563-42.687-1.626-75.878-0.998-33.184-1.562-58.81-1.562-76.685 0-61.19 4.998-107.315 15.002-137.811 9.997-31.123 30.874-46.438 62.432-46.438 23.75 0 40.128 2.125 49.126 6.31v-46.061c-6.974-2.6-7.46-3.155-13.498-5.312-9.285-3.316-17.976-5.289-27.315-7.878-8.759-2.428-15.622-4.499-20.934-5.619-30.566-4.128-53.254-6.317-68-6.317-86.438 3.686-134.938 45.875-145.504 126.566l-19.75-19.75c-86.997-86.502-188.435-129.69-304.435-129.69-76.406 0-141.937 23.437-196.5 70.874-54.563 46.874-81.812 107.814-81.812 182.125 0 45.875 10.938 90.125 32.812 133.126 21.875 42.938 51.812 74.313 89.75 93.812 52.719 29 140.219 52.75 262.531 71.188 91.718 14.75 152.344 30.812 181.845 48.25 12.685 6.313 23.501 13.938 32.435 22.938 4.25 12.625 6.31 35.313 6.31 68 0 76.438-21.184 136.5-63.622 180.25-42.469 43.75-102.187 65.625-179.125 65.625-99.656 0-176.344-38.75-230.125-116.25-9.969-16.312-15.531-26.062-16.563-29.25h-22.156zM678.81 473.625c-4.749 0-11.373-2.063-19.744-6.312l-61.691-12.625c-83.812-15.25-145.75-28.437-185.812-39.5-40.093-11.124-77.906-32.437-113.469-64.125-35.594-31.562-53.375-75.875-53.375-132.752 0-129.747 68-194.56 204-194.56 58.5 0 113.594 25.811 165.281 77.498 23.187 24.813 36.125 38.688 38.749 41.875 7.379 5.312 12.627 12.941 15.75 22.938l10.31 307.564z" />
<glyph unicode="&#xe915;" glyph-name="flipbox" d="M64 894.093v-894.093h384.626v-64h-448.626v1024h448.626v-65.907zM512 960h192v-64h-192v64zM768 960h128v-64h-128v64zM960 768h64v-192h-64v192zM896 960h128v-64h-128v64zM960 896h64v-64h-64v64zM512 0h192v-64h-192v64zM768 0h128v-64h-128v64zM960 64h64v-128h-64v128zM896 0h64v-64h-64v64zM960 512h64v-128h-64v128zM960 256h64v-128h-64v128zM960 320h64v-64h-64v64zM736 448l160-160h-320zM704 312.235h64v-184.236h-64v184.236zM256 192h512v-64h-512v64zM256 289.836h64v-161.836h-64v161.836zM288 448l-160 160h320zM256 768h64v-184.236h-64v184.236zM256 768h512v-64h-512v64zM704 768h64v-161.836h-64v161.836z" />
<glyph unicode="&#xe916;" glyph-name="full_page_nav" d="M832 832h-768c-35.205 0-64-28.795-64-64v-704c0-35.205 28.795-64 64-64h768c35.205 0 64 28.795 64 64v704c0 35.205-28.795 64-64 64zM832 309.944l-176.62 224.522c-21.996 30.659-56.812 31.457-77.64 0l-201.544-296.612-108.503 132.854c-15.073 20.91-38.892 20.48-53.187-0.983l-150.508-217.436v615.711h768v-458.056zM1024 548.25c0-18.874-15.315-34.187-34.189-34.187v0c-18.809 0-34.189 15.313-34.189 34.187v0c0 18.874 15.378 34.187 34.189 34.187v0c18.874 0 34.189-15.313 34.189-34.187v0zM1024 412.092c0-18.874-15.315-34.187-34.189-34.187v0c-18.809 0-34.189 15.313-34.189 34.187v0c0 18.874 15.378 34.187 34.189 34.187v0c18.874 0.002 34.189-15.311 34.189-34.187v0zM1024 275.339c0-18.874-15.315-34.247-34.189-34.247v0c-18.809 0-34.189 15.372-34.189 34.247v0c0 18.817 15.378 34.189 34.189 34.189v0c18.874 0 34.189-15.372 34.189-34.189v0zM411.501 582.437c0-37.718-30.624-68.375-68.436-68.375v0c-37.626 0-68.377 30.657-68.377 68.375v0c0 37.749 30.751 68.407 68.377 68.407v0c37.812 0 68.436-30.657 68.436-68.407v0z" />
<glyph unicode="&#xe917;" glyph-name="google_maps" d="M510.117 894.681c110.289 0 202.629-42.666 260.008-120.138 61.531-83.082 77.184-195.162 42.941-307.511-66.937-219.759-228.805-381.334-303.137-446.588-74.254 64.747-235.324 225.14-299.73 445.855-33.121 113.496-16.273 230.090 45.063 311.886 57.152 76.212 145.281 116.497 254.855 116.497zM510.117 960c-293.625 0-437.246-256.281-362.621-512 92.246-316.128 362.621-512 362.621-512s269.813 198.061 365.434 512c77.941 255.719-71.871 512-365.434 512v0zM608 576c0-53.019-42.981-96-96-96s-96 42.981-96 96c0 53.019 42.981 96 96 96s96-42.981 96-96z" />
<glyph unicode="&#xe918;" glyph-name="gradient" d="M960 960h-896c-32 0-64-32-64-64v-896c0-32 32-64 64-64h896c32 0 64 32 64 64v896c0 32-32 64-64 64zM960 0h-896v896h896v-896zM384 704v64c0 32-32 64-64 64s-64-32-64-64v-64c-32 0-64-32-64-64v-128c0-32 32-64 64-64v-320c0-32 32-64 64-64s64 32 64 64v320c32 0 64 32 64 64v128c0 32-32 64-64 64zM384 512h-128v128h128v-128zM768 448v320c0 32-32 64-64 64s-64-32-64-64v-320c-32 0-64-32-64-64v-128c0-32 32-64 64-64v-64c0-32 32-64 64-64s64 32 64 64v64c32 0 64 32 64 64v128c0 32-32 64-64 64zM768 256h-128v128h128v-128z" />
<glyph unicode="&#xe919;" glyph-name="grid_1" d="M384.031 896v-320.594h-320v320.594h320zM384.031 960h-320c-35.203 0-64-28.8-64-64v-320.594c0-35.2 28.797-64 64-64h320c35.203 0 64 28.8 64 64v320.594c0 35.2-28.797 64-64 64v0zM448.033 0c0-35.2-28.8-64-64-64h-320.002c-35.2 0-64 28.8-64 64v320c0 35.2 28.8 64 64 64h320.002c35.2 0 64-28.8 64-64v-320zM959.969 320v-320h-320v320h320zM959.969 384h-320c-35.203 0-64-28.8-64-64v-320c0-35.2 28.797-64 64-64h320c35.203 0 64 28.8 64 64v320c0 35.2-28.797 64-64 64v0zM959.969 896v-320.594h-320v320.594h320zM959.969 960h-320c-35.203 0-64-28.8-64-64v-320.594c0-35.2 28.797-64 64-64h320c35.203 0 64 28.8 64 64v320.594c0 35.2-28.797 64-64 64v0z" />
<glyph unicode="&#xe91a;" glyph-name="grid_2" d="M448.033 0c0-35.2-28.8-64-64-64h-320.002c-35.2 0-64 28.8-64 64v896c0 35.2 28.8 64 64 64h320.002c35.2 0 64-28.8 64-64v-896zM959.969 320v-320h-320v320h320zM959.969 384h-320c-35.203 0-64-28.8-64-64v-320c0-35.2 28.797-64 64-64h320c35.203 0 64 28.8 64 64v320c0 35.2-28.797 64-64 64v0zM959.969 896v-320.594h-320v320.594h320zM959.969 960h-320c-35.203 0-64-28.8-64-64v-320.594c0-35.2 28.797-64 64-64h320c35.203 0 64 28.8 64 64v320.594c0 35.2-28.797 64-64 64v0z" />
<glyph unicode="&#xe91b;" glyph-name="grid_3" d="M0 960h256v-256h-256v256zM768 960h256v-256h-256v256zM384 960h256v-256h-256v256zM0 576h256v-256h-256v256zM768 576h256v-256h-256v256zM384 576h256v-256h-256v256zM0 192h256v-256h-256v256zM768 192h256v-256h-256v256zM384 192h256v-256h-256v256z" />
<glyph unicode="&#xe91c;" glyph-name="grid_4" d="M448 576c0-35.2-28.8-64-64-64h-320c-35.2 0-64 28.8-64 64v320c0 35.2 28.8 64 64 64h320c35.2 0 64-28.8 64-64v-320zM1024 576c0-35.2-28.8-64-64-64h-320c-35.2 0-64 28.8-64 64v320c0 35.2 28.8 64 64 64h320c35.2 0 64-28.8 64-64v-320zM448 0c0-35.2-28.8-64-64-64h-320c-35.2 0-64 28.8-64 64v320c0 35.2 28.8 64 64 64h320c35.2 0 64-28.8 64-64v-320zM1024 0c0-35.2-28.8-64-64-64h-320c-35.2 0-64 28.8-64 64v320c0 35.2 28.8 64 64 64h320c35.2 0 64-28.8 64-64v-320z" />
<glyph unicode="&#xe91d;" glyph-name="grid_5" d="M448 576c0-35.2-28.8-64-64-64h-320c-35.2 0-64 28.8-64 64v320c0 35.2 28.8 64 64 64h320c35.2 0 64-28.8 64-64v-320zM1024 0c0-35.2-28.8-64-64-64h-320c-35.2 0-64 28.8-64 64v896c0 35.2 28.8 64 64 64h320c35.2 0 64-28.8 64-64v-896zM448 0c0-35.2-28.8-64-64-64h-320c-35.2 0-64 28.8-64 64v320c0 35.2 28.8 64 64 64h320c35.2 0 64-28.8 64-64v-320z" />
<glyph unicode="&#xe91e;" glyph-name="icon" d="M1007.966 584.043l-223.395-265.29 52.943-335.672c0.646-4.696 0.646-8.806 0.646-13.502 0-18.081-7.425-33.579-25.288-33.579-8.609 0-17.217 3.405-24.535 8.101l-276.338 158.502-276.338-158.502c-7.963-4.696-15.926-8.101-24.535-8.101-17.863 0-25.934 16.202-25.934 33.579 0 4.696 0.646 8.806 1.291 13.502l52.943 335.672-224.040 265.29c-7.425 8.747-15.388 20.136-15.388 32.229 0 20.136 19.047 21.028 34.435 23.729h308.943l138.492 292.468c5.488 12.739 15.926 27.532 30.13 27.532s24.642-14.794 30.13-27.532l138.492-292.468h308.943c14.742-2.7 34.435-3.593 34.435-23.729 0-12.093-7.963-23.482-16.034-32.229zM887.983 576h-261.546l-114.437 228.903-118.212-228.903h-257.771l188.314-227.015-44.98-282.662 232.649 133.611 232.003-133.611-44.335 282.662 188.314 227.015z" />
<glyph unicode="&#xe91f;" glyph-name="icon_column" d="M0 384.008h1024v-128.028h-1024v128.028zM192 128.008h640v-128h-640v128zM511.953 831.992c70.563 0 128.008-57.382 128.047-127.913 0.023-34.195-13.273-66.348-37.43-90.536-24.164-24.195-56.32-37.53-90.5-37.551-70.578 0-128.031 57.382-128.070 127.913-0.023 34.195 13.273 66.349 37.43 90.541s56.289 37.526 90.445 37.546h0.078zM511.93 895.992h-0.055c-106.063-0.062-191.938-86.093-191.875-192.125 0.063-106.018 86.086-191.875 192.070-191.875h0.055c106.063 0.063 191.938 86.094 191.875 192.125-0.063 106.018-85.961 191.886-192.070 191.875v0z" />
<glyph unicode="&#xe920;" glyph-name="icon_list" d="M0 960h256v-256h-256v256zM0 576h256v-256h-256v256zM0 192h256v-256h-256v256zM384 896h640v-128h-640v128zM384 512h640v-128h-640v128zM384 128h640v-128h-640v128z" />
<glyph unicode="&#xe921;" glyph-name="ihover" d="M473.6 256v-12.8c-6.4 0-6.4-6.4-12.8-6.4-6.4 6.4-12.8 12.8-12.8 19.2h25.6zM704 768c-70.4 0-140.8-25.6-192-64-51.2 38.4-121.6 64-192 64-179.2 0-320-140.8-320-320 0-102.4 51.2-198.4 128-256v0c51.2-38.4 121.6-64 192-64s140.8 25.6 192 64c51.2-38.4 121.6-64 192-64 179.2 0 320 140.8 320 320s-140.8 320-320 320zM320 704c51.2 0 102.4-19.2 147.2-44.8-6.4-6.4-12.8-12.8-19.2-19.2v0h-294.4c44.8 38.4 102.4 64 166.4 64zM96 576h313.6c-12.8-19.2-19.2-44.8-19.2-64h-320c6.4 25.6 19.2 44.8 25.6 64zM64 448h320c0-19.2 0-44.8 6.4-64h-320c-6.4 19.2-6.4 44.8-6.4 64zM448 256h-300.8c-19.2 19.2-38.4 38.4-51.2 64h313.6c12.8-25.6 25.6-44.8 38.4-64zM704 192c-51.2 0-102.4 19.2-147.2 44.8-19.2 12.8-32 25.6-44.8 44.8-38.4 44.8-64 102.4-64 166.4s25.6 121.6 64 166.4c12.8 19.2 32 32 51.2 44.8 38.4 25.6 89.6 44.8 147.2 44.8 140.8 0 256-115.2 256-256s-121.6-256-262.4-256zM128 192v0 0 0z" />
<glyph unicode="&#xe922;" glyph-name="interactive_banner" d="M960 960.246h-896c-35.205 0-64-28.795-64-64v-896.492c0-0.389 0-0.758 0.020-1.147 0.881-34.468 29.327-62.362 63.98-62.362h896c34.652 0 63.099 27.894 63.98 62.362 0.020 0.389 0.020 0.758 0.020 1.147v896.492c0 35.205-28.795 64-64 64zM64 127.877v768.369h896v-768.369h-896zM1023.98-1.393c-0.594-34.836-29-62.853-63.98-62.853h-896c-34.98 0-63.386 28.017-63.98 62.853 0.881-34.468 29.327-62.362 63.98-62.362h896c34.652 0 63.099 27.894 63.98 62.362zM192 512h640v-64h-640v64zM192 384.156h640v-64.031h-640v64.031zM448 703.75h128v-128h-128v128z" />
<glyph unicode="&#xe923;" glyph-name="interactive_image" d="M960 896.001v-896.001h-896v896.001h896zM960 960.001h-896c-35.203 0-64-28.8-64-64v-896.001c0-35.2 28.797-64 64-64h896c35.203 0 64 28.8 64 64v896.001c0 35.2-28.797 64-64 64v0zM832 768v-320h-192l-128-128-128 128h-192v320zM576 191.5c0-35.346-28.654-64-64-64s-64 28.654-64 64c0 35.346 28.654 64 64 64s64-28.654 64-64z" />
<glyph unicode="&#xe924;" glyph-name="lightbox" d="M960 896v-896h-896v896h896zM960 960h-896c-35.375 0-64-28.656-64-64v-896c0-35.373 28.625-64 64-64h896c35.375 0 64 28.627 64 64v896c0 35.344-28.625 64-64 64v0zM832 768v-320l-128 128-320-320 128-128h-320v320l128-128 320 320-128 128z" />
<glyph unicode="&#xe925;" glyph-name="link_block" d="M909.441 256h-3.84c-17.922 0-42.242-10.238-55.043-22.398 0 0-129.918-128.641-273.918-161.922v440.32h192.641c35.199 0 64 28.801 64 64s-28.801 64-64 64h-192.641v81.922c37.758 21.758 63.359 63.359 63.359 110.078 0 70.398-57.602 128-128 128s-128-57.602-128-128c0-47.359 26.238-88.961 64.641-111.359v-80.641h-191.359c-35.203 0-64-28.801-64-64s28.797-64 64-64h191.359v-440.32c-144.641 32.641-275.199 161.922-275.199 161.922-12.801 12.16-37.121 22.398-55.043 22.398h-3.84c-17.277 0-23.68-11.52-13.437-26.238 0 0 208-293.762 410.879-293.762s410.879 293.762 410.879 293.762c10.242 14.719 3.84 26.238-13.437 26.238zM428.801 832c0 46.078 37.121 83.199 83.199 83.199s83.199-37.121 83.199-83.199-37.121-83.199-83.199-83.199-83.199 37.121-83.199 83.199z" />
<glyph unicode="&#xe926;" glyph-name="link_column" d="M0 896v-896c0-38.4 25.6-64 64-64h896c38.4 0 64 25.6 64 64v896c0 38.4-25.6 64-64 64h-896c-38.4 0-64-25.6-64-64zM960 0h-896v896h896v-896zM448 320h-128c-70.4 0-128 57.6-128 128s57.6 128 128 128h128v64h-128c-108.8 0-192-83.2-192-192 0-102.4 83.2-192 192-192h128v64zM704 640h-128v-64h128c70.4 0 128-57.6 128-128s-57.6-128-128-128h-128v-64h128c108.8 0 192 89.6 192 192 0 108.8-83.2 192-192 192zM384 512h256v-128h-256v128z" />
<glyph unicode="&#xe927;" glyph-name="modal_box" d="M960 960h-896c-35.369 0-64-28.652-64-64v-896c0-35.369 28.631-64 64-64h896c35.369 0 64 28.631 64 64v896c0 35.348-28.631 64-64 64zM960 0h-896v704h896v-704zM192 576h640v-64h-640v64zM192 448h640v-64h-640v64zM320 320v-192h384v192h-384zM640 192.5h-256v64h256v-64z" />
<glyph unicode="&#xe928;" glyph-name="parallax" d="M960 896v-896h-896v896h896zM960 960h-896c-35.203 0-64-28.8-64-64v-896c0-35.2 28.797-64 64-64h896c35.203 0 64 28.8 64 64v896c0 35.2-28.797 64-64 64v0zM512 256h128l-160-192-160 192h128v384h-128l160 192 160-192h-128z" />
<glyph unicode="&#xe929;" glyph-name="pricing" d="M768 768h256v-640h-256v640zM0 768h256v-640h-256v640zM320 896v-896h384v896h-384zM640 64h-256v768h256v-768zM379.931 640h268.069v-64h-268.069v64zM379.931 576h268.069v-64h-268.069v64zM379.931 448h268.069v-64h-268.069v64zM379.931 320h268.069v-64h-268.069v64zM379.931 192h268.069v-64h-268.069v64z" />
<glyph unicode="&#xe92a;" glyph-name="progress_bar" d="M960 704h-896c-32 0-64-32-64-64v-384c0-32 32-64 64-64h896c32 0 64 32 64 64v384c0 32-32 64-64 64zM448 256h-64v384h64v-384zM576 256h-64v384h64v-384zM704 256h-64v384h64v-384zM832 256h-64v384h64v-384zM960 256h-64v384h64z" />
<glyph unicode="&#xe92b;" glyph-name="qr_code" d="M0 960h1024v-128h-1024v128zM896 960h128v-1024h-128v1024zM0 64h1024v-128h-1024v128zM0 960h128v-1024h-128v1024zM256 704h512v-512h-512v512z" />
<glyph unicode="&#xe92c;" glyph-name="quote" d="M630.252 55.858v62.317c89.312 46.56 153.184 95.002 191.558 145.184 38.374 50.125 57.754 105.627 57.754 166.377 0 34.406-4.94 58.75-14.374 73-9.504 14.188-21.005 21.25-34.189 21.25-13.376 0-30.873-3.781-53.254-11.406-22.374-7.563-42.624-11.344-60.813-11.344-21.248 0-41.434 4-60.058 12.125-18.624 8.157-35.379 19.563-49.312 34.188-14.125 14.625-25.44 31.719-33.44 50.906-8 19.219-12.25 40.063-12.25 62.344 0 24.281 4.934 47.25 15.315 69.156 10.182 21.812 23.808 40.438 40.998 56.219 16.998 15.781 37.94 28.281 62.246 37.969 24.314 9.75 50.19 14.469 77.504 14.469 33.498 0 66.19-7.782 98.062-23.563 32-15.781 60.377-37.25 85.062-64.594 24.749-27.343 44.998-59.843 60.128-97.312 15.245-37.375 22.81-77.437 22.81-120 0-50.75-8.75-100.344-26.624-148.938-17.876-48.657-43.316-94.094-76.814-136.091-33.44-41.939-74.438-79.629-123.066-112.506-48.685-32.813-104.563-59.437-167.245-79.75zM72.998 60.421v57.754c51.629 30.374 93.811 58.31 126.874 83.622 33.126 25.254 58.63 50.317 76.754 75.187 18.182 24.877 30.874 50.376 37.248 76.814 6.438 26.375 9.939 55.281 9.939 86.625 0 29.469-5.69 50.906-16.749 64.593-11.065 13.656-22.88 20.5-34.937 20.5-11.066 0-27.751-4-50.19-12.157-22.374-8.125-44.499-12.125-66.874-12.125-20.064 0-39.878 4-58.502 12.125-18.624 8.157-35.314 19-49.44 32.657-13.933 13.688-25.434 30.25-34.189 49.375-8.749 19.219-12.934 39.563-12.934 60.813 0 24.375 5.376 47.718 16 69.969 10.624 22.188 24.998 41.75 43.372 58.468 18.125 16.719 39.38 30.188 63.814 40.282 24.314 10.031 50.502 15.219 79.002 15.219 33.434 0 65.747-7.656 97.312-22.844 31.565-15.219 59.187-36.438 83.501-63.781 24.435-27.344 43.751-59.5 58.624-96.5 14.81-37.094 21.939-76.812 21.939-119.343 0-52.594-8.755-104.094-26.63-154.25-17.747-50.188-43.187-95.937-76.621-137.562-33.504-41.69-74.189-78.31-122.374-110.253-48.25-31.808-102.938-56.934-164.941-75.187z" />
<glyph unicode="&#xe92d;" glyph-name="ribbon" d="M960 960h-896c-35.199 0-64-28.801-64-64v-896c0-35.199 28.801-64 64-64h896c35.199 0 64 28.801 64 64v896c0 35.199-28.801 64-64 64zM951.039 887.039v-288l-67.199 67.203-1.918 1.277-145.922 145.922-76.801 73.598h291.84zM951.039 8.961h-878.078v878.078h219.52l658.559-658.559v-219.52zM883.84 667.52v-1.277l-1.918 1.277z" />
<glyph unicode="&#xe92e;" glyph-name="round_connected_icons" d="M960 736c0 89.6-70.4 160-160 160-64 0-121.6-38.4-147.2-89.6-44.8 19.2-89.6 25.6-140.8 25.6-115.2 0-224-51.2-294.4-140.8-19.2 6.4-38.4 12.8-57.6 12.8-89.6 0-160-70.4-160-160 0-76.8 57.6-147.2 134.4-160 25.6-179.2 185.6-320 377.6-320v0c12.8-70.4 76.8-128 160-128 89.6 0 160 70.4 160 160 0 38.4-12.8 70.4-32 96 64 64 96 160 96 256 0 51.2-12.8 96-25.6 140.8 51.2 25.6 89.6 83.2 89.6 147.2zM864 448c0-89.6-32-166.4-89.6-230.4-25.6 25.6-64 38.4-102.4 38.4-89.6 0-160-70.4-160-160-172.8 0-313.6 128-345.6 288 83.2 0 153.6 76.8 153.6 160 0 57.6-32 108.8-76.8 134.4 64 76.8 160 121.6 268.8 121.6 44.8 0 89.6-6.4 134.4-25.6-6.4-12.8-6.4-25.6-6.4-38.4 0-89.6 70.4-160 160-160 12.8 0 25.6 0 38.4 6.4 19.2-44.8 25.6-89.6 25.6-134.4z" />
<glyph unicode="&#xe92f;" glyph-name="row_separator" d="M0 896v-896c0-38.4 25.6-64 64-64h896c38.4 0 64 25.6 64 64v896c0 38.4-25.6 64-64 64h-896c-38.4 0-64-25.6-64-64zM960 0h-896v896h896v-896zM128 512h256v-128h-256v128zM640 512h256v-128h-256v128zM448 512h128v-128h-128v128z" />
<glyph unicode="&#xe930;" glyph-name="row_style" d="M960 896v-896h-896v896h896zM1024 960h-1024v-1024h1024v1024zM896 192l-128-128-256 256v64l64 64h64zM576 768h64v-64h-64v64zM192 768h64v-64h-64v64zM576 576h64v-64h-64v64zM384 384h64v-64h-64v64zM192 384h64v-64h-64v64zM256 448h64v-64h-64v64zM512 704h64v-64h-64v64zM192 576h64v-64h-64v64zM384 768h64v-64h-64v64zM256 704h64v-64h-64v64zM512 544c0-53.019-42.981-96-96-96s-96 42.981-96 96c0 53.019 42.981 96 96 96s96-42.981 96-96z" />
<glyph unicode="&#xe931;" glyph-name="scroll_to_id" d="M0 896v-896c0-38.4 25.6-64 64-64h896c38.4 0 64 25.6 64 64v896c0 38.4-25.6 64-64 64h-896c-38.4 0-64-25.6-64-64zM960 0h-896v896h896v-896zM384 128h-128l128 640h128zM640 128h-128l128 640h128zM192 640h640v-128h-640v128zM192 384h640v-128h-640v128zM768 576h64v-64h-64v64z" />
<glyph unicode="&#xe932;" glyph-name="single_display" d="M0 960v-1024h1024v1024h-1024zM960 0h-896v896h896v-896zM256 512h512v-384h-512v384zM256 768h512v-128h-512v128z" />
<glyph unicode="&#xe933;" glyph-name="single_image" d="M960 384l-166.4 166.4c-12.8 12.8-38.4 25.6-57.6 25.6v0c-19.2 0-44.8-12.8-57.6-25.6l-230.4-230.4-102.4 102.4c-12.8 12.8-38.4 25.6-57.6 25.6s-44.8-12.8-57.6-25.6l-166.4-166.4v640h896v-512zM960 960h-896c-32 0-64-32-64-64v-896c0-32 32-64 64-64h896c32 0 64 32 64 64v896c0 32-32 64-64 64zM960 0v0c0 0 0 0 0 0v0zM960 128c0 0 0 0 0 0v0 0zM384 672c0-53.019-42.981-96-96-96s-96 42.981-96 96c0 53.019 42.981 96 96 96s96-42.981 96-96z" />
<glyph unicode="&#xe934;" glyph-name="sliding_image" d="M0 896v-896c0-38.4 25.6-64 64-64h896c38.4 0 64 25.6 64 64v896c0 38.4-25.6 64-64 64h-896c-38.4 0-64-25.6-64-64zM960 0h-896v896h896v-896zM704 576l192-160-192-160v128h-192v64h192zM320 256l-192 160 192 160v-128h192v-64h-192z" />
<glyph unicode="&#xe935;" glyph-name="sticking_column" d="M576 896v-896h-512v896h512zM640 960h-640v-1024h640v1024zM704 960h320v-512h-320v512zM1024 128l-160-192-160 192h128v192h64v-192z" />
<glyph unicode="&#xe936;" glyph-name="tabs" d="M192 639.812h320v-128h-320v128zM192 447.906h640v-63.969h-640v63.969zM192 319.937h640v-64h-640v64zM192 191.937h640v-64h-640v64zM960 832h-384v128h-256v-128h-64v128h-256v-960c0-35.369 28.631-64 64-64h896c35.369 0 64 28.631 64 64v768c0 35.348-28.631 64-64 64zM960 0h-896v768h896v-768z" />
<glyph unicode="&#xe937;" glyph-name="testimonials" d="M960 768.001v-448.001h-729.977l-166.023-165.703v613.704h896zM960 832.001h-896c-35.375 0-64-28.656-64-64v-768.001l256.5 256h703.5c35.375 0 64 28.627 64 64v448.001c0 35.344-28.625 64-64 64v0z" />
<glyph unicode="&#xe938;" glyph-name="toggle_row" d="M0 768.25v127.75c0 35.344 28.627 64 64 64h896c35.373 0 64-28.656 64-64v-127.75h-1024zM0 704h1024v-128h-1024v128zM0 512h1024v-320h-1024v320zM960-64h-896c-35.373 0-64 28.627-64 64v127.75h1024v-127.75c0-35.373-28.627-64-64-64z" />
<glyph unicode="&#xe939;" glyph-name="toogle_row" d="M1024 896c0-32 0-64 0-64h-1024c0 0 0 32 0 64v0c0 38.4 25.6 64 64 64h896c38.4 0 64-25.6 64-64v0zM448 704v0c0-38.4 0-128 0-128h-384c0 0 0 89.6 0 128v0c0 32 0 0 0 0h384zM1024 0c0-38.4-25.6-64-64-64h-896c-38.4 0-64 25.6-64 64v0c0 38.4 0 64 0 64h1024c0 0 0-25.6 0-64v0zM960 256c0-38.4 0-64 0-64h-448c0 0 0 25.6 0 64v384c0 38.4 0 64 0 64h448c0 0 0-25.6 0-64v-384zM448 512v0c0-38.4 0-320 0-320h-384c0 0 0 281.6 0 320v0z" />
<glyph unicode="&#xe93a;" glyph-name="tooltip" d="M704 192v-64h-384v64h384zM768 256h-512v-192h512v192zM896 832v-320h-256l-128-128-128 128h-256v320z" />
<glyph unicode="&#xe93b;" glyph-name="shopping_bag_v1" d="M896 652.8c0 32-19.2 51.2-44.8 51.2h-115.2c0 19.2 0 38.4-6.4 57.6 0 12.8-6.4 25.6-6.4 32s0 12.8-6.4 19.2c-6.4 19.2-12.8 38.4-19.2 51.2 0 6.4-6.4 6.4-6.4 12.8-6.4 12.8-19.2 25.6-32 32-6.4 6.4-12.8 6.4-19.2 12.8-6.4 0-6.4 6.4-12.8 6.4-12.8 19.2-32 25.6-57.6 25.6-6.4 6.4-19.2 6.4-25.6 6.4-12.8 0-19.2 0-32 0-108.8 0-166.4-38.4-198.4-121.6-6.4-19.2-12.8-44.8-12.8-64 0-6.4 0-12.8 0-25.6 0-6.4 0-12.8 0-25.6 0-6.4 0-6.4 0-12.8 0 0 0-6.4 0-12.8h-121.6c-32 6.4-51.2-12.8-51.2-44.8l-128-672c0-25.6 19.2-44.8 51.2-44.8h928c25.6 0 51.2 19.2 51.2 51.2l-134.4 665.6zM371.2 812.8c19.2 51.2 51.2 83.2 140.8 83.2 12.8 0 19.2 0 25.6 0s12.8 0 19.2 0c6.4 0 6.4 0 12.8 0 19.2-6.4 32-12.8 44.8-19.2 0 0 6.4-6.4 6.4-6.4 6.4 0 6.4-6.4 12.8-12.8 0 0 6.4-6.4 6.4-6.4 0-12.8 0-19.2 6.4-25.6 12.8-32 19.2-70.4 25.6-121.6h-320c6.4 44.8 12.8 83.2 19.2 108.8zM70.4 0l121.6 640h96c0-25.6 0-44.8 0-70.4-19.2-12.8-32-32-32-57.6 0-32 32-64 64-64s64 32 64 64c0 25.6-12.8 44.8-32 57.6 0 25.6 0 51.2 0 70.4h320c0-19.2 0-44.8 0-70.4-19.2-12.8-32-32-32-57.6 0-32 32-64 64-64s64 32 64 64c0 25.6-12.8 44.8-32 57.6v0c0 25.6 0 51.2 0 70.4h96l121.6-640h-883.2z" />
<glyph unicode="&#xe93c;" glyph-name="add_to_cart" d="M192 64c0-38.4 25.6-64 64-64s64 25.6 64 64-25.6 64-64 64-64-32-64-64zM768 64c0-38.4 25.6-64 64-64s64 25.6 64 64-25.6 64-64 64c-32 0-64-32-64-64zM0 864c0-19.2 12.8-32 32-32h64l38.4-172.8 57.6-275.2c0 0 0-6.4 0-6.4l-32-147.2c0-6.4 0-19.2 6.4-25.6s19.2-12.8 25.6-12.8h729.6c19.2 0 32 12.8 32 32s-12.8 32-32 32h-691.2l12.8 64c6.4 0 12.8 0 12.8 0h582.4c38.4 0 57.6 6.4 76.8 51.2l102.4 320c19.2 51.2-19.2 76.8-57.6 76.8h-768c-6.4 0-6.4 0-12.8 0l-25.6 102.4c0 12.8-12.8 25.6-32 25.6h-89.6c-19.2 0-32-12.8-32-32zM192 704h768l-102.4-313.6c0 0 0-6.4 0-6.4s-6.4 0-12.8 0h-588.8v12.8l-64 307.2zM352 448c-19.2 0-32 12.8-32 25.6v140.8c0 12.8 12.8 25.6 32 25.6s32-12.8 32-25.6v-147.2c0-6.4-12.8-19.2-32-19.2zM480 448c-19.2 0-32 12.8-32 25.6v140.8c0 12.8 12.8 25.6 32 25.6s32-12.8 32-25.6v-147.2c0-6.4-12.8-19.2-32-19.2zM608 448c-19.2 0-32 12.8-32 25.6v140.8c0 12.8 12.8 25.6 32 25.6s32-12.8 32-25.6v-147.2c0-6.4-12.8-19.2-32-19.2zM736 448c-19.2 0-32 12.8-32 25.6v140.8c0 12.8 12.8 25.6 32 25.6s32-12.8 32-25.6v-147.2c0-6.4-12.8-19.2-32-19.2z" />
<glyph unicode="&#xe93d;" glyph-name="category_carousel" d="M736 576c19.2 0 32 19.2 32 38.4v38.4c0 32-19.2 51.2-44.8 51.2h-121.6c-6.4 160-51.2 256-217.6 256-108.8 0-166.4-38.4-198.4-121.6-12.8-38.4-19.2-83.2-25.6-134.4h-108.8c-32 0-51.2-19.2-51.2-51.2v-672c0-25.6 19.2-44.8 51.2-44.8h672c25.6 0 51.2 19.2 51.2 51.2v76.8c0 32 0 64-32 64s-38.4-32-38.4-64v-64h-640v640h96c0-32 0-76.8 0-115.2 0-19.2 12.8-32 32-32s32 12.8 32 32c0 44.8 0 83.2 0 115.2h320c0-38.4 0-83.2 0-128 0-19.2 12.8-32 32-32s32 12.8 32 32c0 44.8 0 89.6 0 128h96c0 0 0-12.8 0-32s12.8-32 32-32zM224 704c0 44.8 6.4 83.2 19.2 115.2 19.2 44.8 51.2 76.8 140.8 76.8 115.2 0 147.2-51.2 153.6-192h-313.6zM1011.2 332.8l-89.6-89.6c-12.8-12.8-32-12.8-44.8 0s-12.8 32 0 44.8l38.4 38.4h-243.2c-19.2-6.4-32 6.4-32 25.6s12.8 32 32 32h243.2l-38.4 38.4c-12.8 12.8-12.8 32 0 44.8s32 12.8 44.8 0l89.6-89.6c12.8-12.8 12.8-38.4 0-44.8z" />
<glyph unicode="&#xe93e;" glyph-name="grid_product_category" d="M384 896v-320h-320v320h320zM384 960h-320c-32 0-64-25.6-64-64v-320c0-38.4 32-64 64-64h320c38.4 0 64 25.6 64 64v320c0 38.4-32 64-64 64v0zM960 896v-320h-320v320h320zM960 960h-320c-32 0-64-25.6-64-64v-320c0-38.4 32-64 64-64h320c38.4 0 64 25.6 64 64v320c0 38.4-32 64-64 64v0zM384 320v-320h-320v320h320zM384 384h-320c-38.4 0-64-25.6-64-64v-320c0-38.4 32-64 64-64h320c38.4 0 64 25.6 64 64v320c0 38.4-32 64-64 64v0zM960 320v-320h-320v320h320zM960 384h-320c-38.4 0-64-25.6-64-64v-320c0-38.4 32-64 64-64h320c38.4 0 64 25.6 64 64v320c0 38.4-32 64-64 64v0zM928 160c0-19.2-12.8-32-32-32h-64v-64c0-19.2-12.8-32-32-32s-32 12.8-32 32v64h-64c-19.2 0-32 12.8-32 32s12.8 32 32 32h64v64c0 19.2 12.8 32 32 32s32-12.8 32-32v-64h64c19.2 0 32-12.8 32-32z" />
<glyph unicode="&#xe93f;" glyph-name="product_carousel" d="M736-51.2h-556.8c-19.2 0-32 12.8-32 32v691.2c0 6.4 6.4 19.2 12.8 25.6l268.8 230.4c12.8 12.8 32 12.8 38.4 0l288-230.4c6.4-12.8 12.8-19.2 12.8-32v-70.4c0-19.2-12.8-32-32-32s-32 12.8-32 32v57.6l-256 204.8-236.8-204.8v-646.4h492.8v76.8c0 19.2 12.8 32 32 32s32-12.8 32-32v-108.8c0-12.8-12.8-25.6-32-25.6zM448 556.8c-64 0-108.8 51.2-108.8 108.8 0 64 51.2 108.8 108.8 108.8s108.8-51.2 108.8-108.8c0-64-44.8-108.8-108.8-108.8zM448 710.4c-25.6 0-44.8-19.2-44.8-44.8s19.2-44.8 44.8-44.8 44.8 19.2 44.8 44.8-19.2 44.8-44.8 44.8zM1011.2 332.8l-89.6-89.6c-12.8-12.8-32-12.8-44.8 0s-12.8 32 0 44.8l38.4 38.4h-243.2c-19.2-6.4-32 6.4-32 25.6s12.8 32 32 32h243.2l-38.4 38.4c-12.8 12.8-12.8 32 0 44.8s32 12.8 44.8 0l89.6-89.6c12.8-12.8 12.8-38.4 0-44.8z" />
<glyph unicode="&#xe940;" glyph-name="product_category" d="M800 576c19.2 0 32 19.2 32 38.4v38.4c0 32-19.2 51.2-44.8 51.2h-115.2c-12.8 160-57.6 256-224 256-108.8 0-166.4-38.4-198.4-121.6-12.8-38.4-19.2-83.2-25.6-134.4h-108.8c-32 0-51.2-19.2-51.2-51.2v-672c0-25.6 19.2-44.8 51.2-44.8h672c25.6 0 51.2 19.2 51.2 51.2v76.8c0 32 0 64-32 64s-38.4-32-38.4-64v-64h-640v640h96c0-32 0-76.8 0-115.2 0-19.2 12.8-32 32-32s32 12.8 32 32c0 44.8 0 83.2 0 115.2h320c0-38.4 0-83.2 0-128 0-19.2 12.8-32 32-32s32 12.8 32 32c0 44.8 0 89.6 0 128h96c0 0 0-12.8 0-32s12.8-32 32-32zM288 704c0 44.8 6.4 83.2 19.2 115.2 19.2 44.8 51.2 76.8 140.8 76.8 115.2 0 147.2-51.2 153.6-192h-313.6zM960 352c0-19.2-12.8-32-32-32h-96v-96c0-19.2-12.8-32-32-32s-32 12.8-32 32v96h-96c-19.2 0-32 12.8-32 32s12.8 32 32 32h96v96c0 19.2 12.8 32 32 32s32-12.8 32-32v-96h96c19.2 0 32-12.8 32-32z" />
<glyph unicode="&#xe941;" glyph-name="product_category_v2" d="M736-44.8h-556.8c-19.2 0-32 12.8-32 32v691.2c0 6.4 6.4 19.2 12.8 25.6l268.8 230.4c12.8 12.8 32 12.8 38.4 0l288-230.4c6.4-12.8 12.8-19.2 12.8-25.6v-70.4c0-19.2-12.8-32-32-32s-32 12.8-32 25.6v57.6l-256 204.8-236.8-198.4v-646.4h492.8v76.8c0 19.2 12.8 32 32 32s32-12.8 32-32v-108.8c0-19.2-12.8-32-32-32zM448 563.2c-64 0-108.8 51.2-108.8 108.8 0 64 51.2 108.8 108.8 108.8s108.8-51.2 108.8-108.8c0-57.6-44.8-108.8-108.8-108.8zM448 723.2c-25.6 0-44.8-19.2-44.8-44.8s19.2-51.2 44.8-51.2 44.8 19.2 44.8 44.8-19.2 51.2-44.8 51.2zM896 352c0-19.2-12.8-32-32-32h-96v-96c0-19.2-12.8-32-32-32s-32 12.8-32 32v96h-96c-19.2 0-32 12.8-32 32s12.8 32 32 32h96v96c0 19.2 12.8 32 32 32s32-12.8 32-32v-96h96c19.2 0 32-12.8 32-32z" />
<glyph unicode="&#xe942;" glyph-name="product_category_v3" d="M992 64h-256c-19.2 0-32 12.8-32 32s12.8 32 32 32h224v556.8l-211.2 198.4-89.6-83.2c-12.8-12.8-32-12.8-44.8 0s-12.8 32 0 44.8l108.8 102.4c12.8 12.8 32 12.8 44.8 0l243.2-230.4c6.4-6.4 12.8-12.8 12.8-19.2v-601.6c0-19.2-12.8-32-32-32zM608-70.4h-576c-19.2 0-32 12.8-32 32v736c0 12.8 0 19.2 12.8 25.6l288 230.4c12.8 6.4 25.6 6.4 38.4 0l288-230.4c6.4-6.4 12.8-12.8 12.8-25.6v-736c0-12.8-12.8-32-32-32zM64-6.4h512v691.2l-256 198.4-256-198.4v-691.2zM320 556.8c-64 0-108.8 51.2-108.8 108.8 0 64 51.2 108.8 108.8 108.8 64 0 108.8-51.2 108.8-108.8s-51.2-108.8-108.8-108.8zM320 716.8c-25.6 0-44.8-19.2-44.8-44.8s19.2-51.2 44.8-51.2c25.6 0 44.8 19.2 44.8 44.8s-19.2 51.2-44.8 51.2z" />
<glyph unicode="&#xe943;" glyph-name="product_grid_v2" d="M384 896v-320h-320v320h320zM384 960h-320c-32 0-64-25.6-64-64v-320c0-38.4 32-64 64-64h320c38.4 0 64 25.6 64 64v320c0 38.4-32 64-64 64v0zM960 896v-896h-320v896h320zM960 960h-320c-32 0-64-25.6-64-64v-896c0-38.4 32-64 64-64h320c38.4 0 64 25.6 64 64v896c0 38.4-32 64-64 64v0zM384 320v-320h-320v320h320zM384 384h-320c-38.4 0-64-25.6-64-64v-320c0-38.4 32-64 64-64h320c38.4 0 64 25.6 64 64v320c0 38.4-32 64-64 64v0z" />
<glyph unicode="&#xe944;" glyph-name="single_product" d="M582.4-25.6c-6.4 0-19.2 0-25.6 6.4l-486.4 486.4c-6.4 12.8-12.8 19.2-12.8 25.6l32 352c0 12.8 12.8 25.6 32 32l352 25.6c6.4 0 19.2 0 25.6-6.4l486.4-486.4c12.8-12.8 12.8-32 0-44.8l-377.6-377.6c-12.8-12.8-19.2-12.8-25.6-12.8zM121.6 505.6l454.4-454.4 339.2 332.8-454.4 454.4-313.6-25.6-25.6-307.2zM281.6 569.6c-25.6 0-57.6 12.8-76.8 32v0c-44.8 44.8-44.8 115.2 0 160s115.2 44.8 160 0c44.8-44.8 44.8-115.2 0-160-25.6-19.2-51.2-32-83.2-32zM249.6 646.4c19.2-19.2 51.2-19.2 64 0 6.4 6.4 12.8 19.2 12.8 32 6.4 12.8 0 25.6-6.4 32-19.2 19.2-51.2 19.2-64 0-25.6-12.8-25.6-44.8-6.4-64z" />
<glyph unicode="&#xe945;" glyph-name="single_product_grid" d="M384 896v-320h-320v320h320zM384 960h-320c-32 0-64-25.6-64-64v-320c0-38.4 32-64 64-64h320c38.4 0 64 25.6 64 64v320c0 38.4-32 64-64 64v0zM960 896v-320h-320v320h320zM960 960h-320c-32 0-64-25.6-64-64v-320c0-38.4 32-64 64-64h320c38.4 0 64 25.6 64 64v320c0 38.4-32 64-64 64v0zM384 320v-320h-320v320h320zM384 384h-320c-38.4 0-64-25.6-64-64v-320c0-38.4 32-64 64-64h320c38.4 0 64 25.6 64 64v320c0 38.4-32 64-64 64v0zM960 320v-320h-320v320h320zM960 384h-320c-38.4 0-64-25.6-64-64v-320c0-38.4 32-64 64-64h320c38.4 0 64 25.6 64 64v320c0 38.4-32 64-64 64v0z" />
<glyph unicode="&#xe946;" glyph-name="text_block" d="M1024 768v192h-192v-64h-640v64h-192v-192h64v-640h-64v-192h192v64h640v-64h192v192h-64v640h64zM896 128h-64v-64h-640v64h-64v640h64v64h640v-64h64v-640zM704 704v-128h-128v-384h-128v384h-128v128z" />
</font>
</defs>
</svg>
