<?xml version="1.0" standalone="no"?>
<!DOCTYPE svg PUBLIC "-//W3C//DTD SVG 1.1//EN" "http://www.w3.org/Graphics/SVG/1.1/DTD/svg11.dtd" >
<svg>
<metadata>
Created by FontForge 20090622 at Tue Mar 29 08:23:53 2016
 By deploy user
Copyright &#194;&#169; 2015 IcoMoon.io. All Rights Reserved.
</metadata>
<defs>
<font id="IcoMoon-Free" horiz-adv-x="1024" >
  <font-face 
    font-family="IcoMoon-Free"
    font-weight="400"
    font-stretch="normal"
    units-per-em="1024"
    panose-1="0 0 0 0 0 0 0 0 0 0"
    ascent="960"
    descent="-64"
    x-height="638"
    cap-height="832"
    bbox="-64.1 -71 2568.4 1024"
    underline-thickness="0"
    underline-position="0"
    unicode-range="U+0001-U+FFFD"
  />
<missing-glyph 
 />
    <glyph glyph-name="uniE900" unicode="house" 
d="M1024 370l-512 397l-512 -397v162l512 397l512 -397v-162zM896 384v-384h-256v256h-256v-256h-256v384l384 288z" />
    <glyph glyph-name="uniE901" unicode="house&#x32;" 
d="M512 928l-512 -512l96 -96l96 96v-416h256v192h128v-192h256v416l96 -96l96 96l-512 512v0zM512 512q-27 0 -45.5 18.5t-18.5 45.5t18.5 45.5t45.5 18.5t45.5 -18.5t18.5 -45.5t-18.5 -45.5t-45.5 -18.5v0z" />
    <glyph glyph-name="uniE902" unicode="house&#x33;" 
d="M1024 352l-192 192v288h-128v-160l-192 192l-512 -512v-32h128v-320h320v192h128v-192h320v320h128v32z" />
    <glyph glyph-name="uniE903" unicode="buildings" 
d="M0 -64h512v1024h-512v-1024v0zM320 832h128v-128h-128v128v0zM320 576h128v-128h-128v128v0zM320 320h128v-128h-128v128v0zM64 832h128v-128h-128v128v0zM64 576h128v-128h-128v128v0zM64 320h128v-128h-128v128v0zM576 640h448v-64h-448v64zM576 -64h128v256h192v-256
h128v576h-448v-576z" />
    <glyph glyph-name="uniE904" unicode="newspaper" 
d="M896 704v128h-896v-704q0 -27 18.5 -45.5t45.5 -18.5h864q40 0 68 28t28 68v544h-128v0zM832 128h-768v640h768v-640v0zM128 640h640v-64h-640v64zM512 512h256v-64h-256v64zM512 384h256v-64h-256v64zM512 256h192v-64h-192v64zM128 512h320v-320h-320v320z" />
    <glyph glyph-name="uniE905" unicode="pencil" 
d="M864 960q66 0 113 -47t47 -113q0 -27 -8.5 -51.5t-23.5 -44.5l-64 -64l-224 224l64 64q20 15 44.5 23.5t51.5 8.5v0zM64 224l-64 -288l288 64l592 592l-224 224l-592 -592v0zM716 596l-448 -448l-56 56l448 448l56 -56v0z" />
    <glyph glyph-name="uniE906" unicode="pencil&#x32;" 
d="M384 320l128 64l448 448l-64 64l-448 -448l-64 -128v0zM289 93q-23 50 -52.5 79.5t-79.5 52.5l99 273l128 78l384 384h-192l-384 -384l-192 -640l640 192l384 384v192l-384 -384l-78 -128z" />
    <glyph glyph-name="uniE907" unicode="feather" 
d="M0 -64q48 144 135 322t214.5 334t296 262t378.5 106q-99 -79 -174 -199l-140.5 -232t-127.5 -192.5t-134 -80.5h-168h-24l-192 -320h-64v0z" />
    <glyph glyph-name="uniE908" unicode="pen" 
d="M1018 668l-286 286q-7 7 -15 5.5t-12 -9.5l-39 -80l268 -268l80 39q8 4 9.5 12t-5.5 15v0zM615 825l-263 -22q-13 -2 -23 -7t-14 -22v0v0q-27 -129 -79.5 -251t-105 -217t-91.5 -152.5l-39 -57.5l57 -57l272 272q-4 9 -6.5 19.5t-2.5 21.5q0 40 28 68t68 28t68 -28
t28 -68t-28 -68t-68 -28q-11 0 -21.5 2.5t-19.5 6.5l-272 -272l57 -57l57.5 39t152.5 91.5t217 105t251 79.5v0v0q17 4 22 14t7 23l22 263l-274 274v0z" />
    <glyph glyph-name="uniE909" unicode="blog" 
d="M384 960v-96q55 0 108 -10.5t104 -32.5q48 -20 91.5 -49.5t81.5 -66.5q37 -38 66.5 -81.5t49.5 -91.5q22 -51 32.5 -104t10.5 -108h96q0 133 -50.5 249.5t-137 203t-203 137t-249.5 50.5v0zM384 768v-96q71 0 135 -26.5t114 -76.5t76.5 -114t26.5 -135h96q0 93 -35 174.5
t-96 142.5t-142.5 96t-174.5 35v0zM480 576l-64 -64l-224 -64l-192 -416l25 -25l233 232q-1 4 -1.5 8.5t-0.5 8.5q0 27 18.5 45.5t45.5 18.5t45.5 -18.5t18.5 -45.5t-18.5 -45.5t-45.5 -18.5q-4 0 -8.5 0.5t-8.5 1.5l-232 -233l25 -25l416 192l64 224l64 64l-160 160v0z" />
    <glyph glyph-name="uniE90A" unicode="color" 
d="M987 923q-38 37 -91 37t-91 -37l-172 -173l-121 122l-136 -136l107 -106l-472 -473q-6 -6 -9 -13.5t-2 -15.5v0v-160q0 -13 9.5 -22.5t22.5 -9.5h160h1.5h2.5q7 0 13.5 2.5t11.5 8.5l473 472l106 -107l136 136l-122 121l173 172q37 38 37 91t-37 91v0zM173 0h-109v109
l470 470l109 -109l-470 -470v0z" />
    <glyph glyph-name="uniE90B" unicode="color&#x32;" 
d="M865 487q-25 69 -62.5 134t-83.5 124.5t-99 113.5t-108 101q-55 -47 -108 -101t-99 -113.5t-83.5 -124.5t-62.5 -134q-15 -43 -23 -87t-7 -88t11 -87t32 -84q25 -46 61 -84t80.5 -65t95 -41.5t103.5 -14.5t103.5 14.5t95 41.5t80.5 65t61 84q22 41 32 84t11 87t-7 88
t-23 87v0zM739 201q-33 -62 -95 -99.5t-132 -37.5q-41 0 -80 13.5t-72 37.5q10 -2 20 -2.5t20 -0.5q44 0 86 12t79 34.5t67.5 54t50.5 70.5q34 64 35.5 128t-11.5 117q11 -22 20.5 -43t16.5 -41q17 -48 23 -113t-28 -130v0z" />
    <glyph glyph-name="uniE90C" unicode="format" 
d="M1024 384v384h-192v64q0 26 -19 45t-45 19h-704q-26 0 -45 -19t-19 -45v-192q0 -26 19 -45t45 -19h704q26 0 45 19t19 45v64h128v-256h-576v-128h-32q-13 0 -22.5 -9.5t-9.5 -22.5v-320q0 -13 9.5 -22.5t22.5 -9.5h128q13 0 22.5 9.5t9.5 22.5v320q0 13 -9.5 22.5
t-22.5 9.5h-32v64h576v0zM768 768h-704v64h704v-64v0z" />
    <glyph glyph-name="uniE90D" unicode="image" 
d="M960 832v0v0v-768v0v0h-896v0v0v768v0v0h896v0zM960 896h-896q-26 0 -45 -19t-19 -45v-768q0 -26 19 -45t45 -19h896q26 0 45 19t19 45v768q0 26 -19 45t-45 19v0v0zM832 672q0 -40 -28 -68t-68 -28t-68 28t-28 68t28 68t68 28t68 -28t28 -68v0zM896 128h-768v128
l224 384l256 -320h64l224 192v-384z" />
    <glyph glyph-name="uniE90E" unicode="images" horiz-adv-x="1152" 
d="M1088 832h-64v64q0 26 -19 45t-45 19h-896q-26 0 -45 -19t-19 -45v-768q0 -26 19 -45t45 -19h64v-64q0 -26 19 -45t45 -19h896q26 0 45 19t19 45v768q0 26 -19 45t-45 19v0zM128 768v-640h-64v0v0v768v0v0h896v0v0v-64h-768q-26 0 -45 -19t-19 -45v0v0zM1088 0v0v0h-896
v0v0v768v0v0h896v0v0v-768v0zM960 608q0 -40 -28 -68t-68 -28t-68 28t-28 68t28 68t68 28t68 -28t28 -68v0zM1024 64h-768v128l224 384l256 -320h64l224 192v-384z" />
    <glyph glyph-name="uniE90F" unicode="camera" 
d="M304 352q0 -43 16.5 -81t44.5 -66t66 -44.5t81 -16.5t81 16.5t66 44.5t44.5 66t16.5 81t-16.5 81t-44.5 66t-66 44.5t-81 16.5t-81 -16.5t-66 -44.5t-44.5 -66t-16.5 -81v0zM960 704h-224q-12 48 -30 88t-66 40h-256q-48 0 -66 -40t-30 -88h-224q-26 0 -45 -19t-19 -45
v-576q0 -26 19 -45t45 -19h896q26 0 45 19t19 45v576q0 26 -19 45t-45 19v0zM512 68q-59 0 -110.5 22.5t-90 61t-61 90t-22.5 110.5t22.5 110.5t61 90t90 61t110.5 22.5t110.5 -22.5t90 -61t61 -90t22.5 -110.5t-22.5 -110.5t-61 -90t-90 -61t-110.5 -22.5v0zM960 512h-128
v64h128v-64v0z" />
    <glyph glyph-name="uniE910" unicode="headset" 
d="M288 384h-64v-448h64q13 0 22.5 9.5t9.5 22.5v384q0 13 -9.5 22.5t-22.5 9.5v0zM736 384q-13 0 -22.5 -9.5t-9.5 -22.5v-384q0 -13 9.5 -22.5t22.5 -9.5h64v448h-64v0zM1024 448q0 106 -40 199.5t-109.5 163t-163 109.5t-199.5 40t-199.5 -40t-163 -109.5t-109.5 -163
t-40 -199.5q0 -46 8 -90t23 -85q-15 -25 -23 -53.5t-8 -59.5q0 -42 14.5 -80t40.5 -67.5t61 -49t76 -25.5v444q-24 -4 -46 -12t-42 -21q-4 20 -6 41t-2 42q0 86 32.5 162t89 132.5t132.5 89t162 32.5t162 -32.5t132.5 -89t89 -132.5t32.5 -162q0 -21 -2 -42t-6 -41
q-20 13 -42 21t-46 12v-444q41 6 76 25.5t61 49t40.5 67.5t14.5 80q0 31 -8 59.5t-23 53.5q15 41 23 85t8 90v0z" />
    <glyph glyph-name="uniE911" unicode="music" 
d="M960 960h64v-736q0 -33 -17.5 -62t-48 -51t-71.5 -34.5t-87 -12.5t-87 12.5t-71.5 34.5t-48 51t-17.5 62t17.5 62t48 51t71.5 34.5t87 12.5q47 0 88.5 -13t71.5 -35v368l-512 -114v-494q0 -33 -17.5 -62t-48 -51t-71.5 -34.5t-87 -12.5t-87 12.5t-71.5 34.5t-48 51
t-17.5 62t17.5 62t48 51t71.5 34.5t87 12.5q47 0 88.5 -13t71.5 -35v624l576 128v0z" />
    <glyph glyph-name="uniE912" unicode="play" 
d="M981 800q-54 8 -110.5 14t-115.5 10t-119.5 6t-123.5 2t-123.5 -2t-119.5 -6t-115.5 -10t-110.5 -14q-11 -41 -18.5 -83t-13 -86.5t-8.5 -90t-3 -92.5t3 -92.5t8.5 -90t13 -86.5t18.5 -83q54 -8 110.5 -14t115.5 -10t119.5 -6t123.5 -2t123.5 2t119.5 6t115.5 10
t110.5 14q11 41 18.5 83t13 86.5t8.5 90t3 92.5t-3 92.5t-8.5 90t-13 86.5t-18.5 83v0zM384 256v384l320 -192l-320 -192v0z" />
    <glyph glyph-name="uniE913" unicode="film" 
d="M0 832v-768h1024v768h-1024v0zM192 128h-128v128h128v-128v0zM192 384h-128v128h128v-128v0zM192 640h-128v128h128v-128v0zM768 128h-512v640h512v-640v0zM960 128h-128v128h128v-128v0zM960 384h-128v128h128v-128v0zM960 640h-128v128h128v-128v0zM384 640v-384
l256 192z" />
    <glyph glyph-name="uniE914" unicode="video&#x33;" 
d="M384 672q0 66 47 113t113 47t113 -47t47 -113t-47 -113t-113 -47t-113 47t-47 113v0zM0 672q0 66 47 113t113 47t113 -47t47 -113t-47 -113t-113 -47t-113 47t-47 113v0zM768 352v96q0 26 -19 45t-45 19h-640q-26 0 -45 -19t-19 -45v-320q0 -26 19 -45t45 -19h640
q26 0 45 19t19 45v96l256 -160v448l-256 -160v0zM640 192h-512v192h512v-192v0z" />
    <glyph glyph-name="uniE915" unicode="dice" 
d="M864 768h-512q-66 0 -113 -47t-47 -113v-512q0 -66 47 -113t113 -47h512q66 0 113 47t47 113v512q0 66 -47 113t-113 47v0zM416 64q-40 0 -68 28t-28 68t28 68t68 28t68 -28t28 -68t-28 -68t-68 -28v0zM416 448q-40 0 -68 28t-28 68t28 68t68 28t68 -28t28 -68t-28 -68
t-68 -28v0zM608 256q-40 0 -68 28t-28 68t28 68t68 28t68 -28t28 -68t-28 -68t-68 -28v0zM800 64q-40 0 -68 28t-28 68t28 68t68 28t68 -28t28 -68t-28 -68t-68 -28v0zM800 448q-40 0 -68 28t-28 68t28 68t68 28t68 -28t28 -68t-28 -68t-68 -28v0zM829 832q-11 55 -55 91.5
t-102 36.5h-512q-66 0 -113 -47t-47 -113v-512q0 -58 36.5 -102t91.5 -55v637q0 26 19 45t45 19h637v0z" />
    <glyph glyph-name="uniE916" unicode="game&#x32;" 
d="M965 781q-35 41 -78.5 74t-93 56.5t-104.5 36t-113 12.5q-106 0 -199.5 -40t-163 -109.5t-109.5 -163t-40 -199.5t40 -199.5t109.5 -163t163 -109.5t199.5 -40q58 0 113 12.5t104.5 36t93 56.5t78.5 74l-325 333l325 333v0zM704 839q30 0 50.5 -20.5t20.5 -50.5
t-20.5 -50.5t-50.5 -20.5t-50.5 20.5t-20.5 50.5t20.5 50.5t50.5 20.5v0z" />
    <glyph glyph-name="uniE917" unicode="cards" 
d="M818 612q-73 54 -123.5 102.5t-85.5 92t-57.5 82t-39.5 71.5v0v0v0v0q-17 -33 -39.5 -71.5t-57.5 -82t-85.5 -92t-123.5 -102.5q-123 -92 -137.5 -192.5t38.5 -170t152 -88.5t201 52q-13 -88 -53.5 -150t-86.5 -89v-38h384v38q-46 27 -86.5 89t-53.5 150q102 -71 201 -52
t152 88.5t38.5 170t-137.5 192.5v0z" />
    <glyph glyph-name="uniE918" unicode="clubs" 
d="M787 567q-44 0 -83 -17t-67 -47q-12 -13 -31.5 -27.5t-42.5 -27.5q11 40 39 84.5t51 66.5q30 29 47 68t17 84q0 43 -16 81t-44 66t-65.5 45t-79.5 17t-79.5 -17t-65.5 -45t-44 -66t-16 -81q0 -45 17 -84t47 -68q23 -22 51 -66.5t39 -84.5q-23 13 -42.5 27.5t-31.5 27.5
q-28 30 -67 47t-83 17q-43 0 -80.5 -16.5t-65.5 -44.5t-44.5 -66.5t-16.5 -81.5t16.5 -81.5t44.5 -67t65.5 -44.5t80.5 -16q44 0 83 17.5t67 47.5q13 13 33.5 29t44.5 30q-1 -56 -13.5 -103.5t-33 -85.5t-46 -66t-52.5 -44v-38h384v38q-27 16 -52.5 44t-46 66t-33 85.5
t-13.5 103.5q24 -14 44.5 -30t33.5 -29q28 -30 67 -47.5t83 -17.5q43 0 80.5 16t65.5 44.5t44.5 67t16.5 81.5t-16.5 81.5t-44.5 66.5t-65.5 44.5t-80.5 16.5v0z" />
    <glyph glyph-name="uniE919" unicode="cards&#x33;" 
d="M512 960l-320 -512l320 -512l320 512z" />
    <glyph glyph-name="uniE91A" unicode="bullhorn" 
d="M1024 531q0 75 -10.5 141.5t-28 116t-41.5 78t-51 29.5v0v0h-83l-34.5 -24t-97.5 -56.5t-150.5 -67t-192.5 -56.5q-6 -34 -10 -74.5t-4 -86.5q0 -47 4 -87.5t10 -74.5q105 -21 192.5 -55.5t150.5 -67.5t97.5 -57l34.5 -24h83v0.5v0.5q27 0 51 29t41.5 78.5t28 115.5
t10.5 142v0zM865 221q-7 0 -14 5.5t-11 9.5q-9 11 -18 27t-17 37q-18 46 -27 105.5t-9 125.5t9 125.5t27 105.5q8 20 17 36.5t18 26.5q4 5 11 10.5t14 5.5t14 -5.5t11 -10.5q9 -10 18 -26.5t17 -36.5q17 -46 26.5 -105.5t9.5 -125.5t-9.5 -125.5t-26.5 -105.5
q-8 -21 -17 -37t-18 -27q-4 -4 -11 -9.5t-14 -5.5v0zM252 531q0 39 2.5 76.5t8.5 72.5q-36 -5 -69 -7.5t-71 -2.5h-59.5h-8.5l-55 -95v-88l55 -95h8.5h59.5q38 0 71 -2.5t69 -7.5q-6 35 -8.5 72.5t-2.5 76.5v0zM368 318l-128 24l82 -321q3 -13 14 -18.5t23 -0.5l118 48
q12 4 16.5 15.5t-2.5 23.5l-123 229v0zM865 411q-3 0 -5.5 2.5t-4.5 3.5q-3 4 -6.5 10.5t-6.5 14.5q-7 17 -10.5 40t-3.5 49q0 25 3.5 48t10.5 41q3 8 6.5 14t6.5 10q2 2 4.5 4t5.5 2t5.5 -2t3.5 -4q4 -4 7.5 -10t6.5 -14q7 -18 10.5 -41t3.5 -48q0 -26 -3.5 -49t-10.5 -40
q-3 -8 -6.5 -14.5t-7.5 -10.5l-3.5 -3.5t-5.5 -2.5v0z" />
    <glyph glyph-name="uniE91B" unicode="connection" horiz-adv-x="1280" 
d="M640 384q79 0 149 -30t122 -83l-90 -90q-35 35 -81.5 55t-99.5 20t-99.5 -20t-81.5 -55l-90 90q52 53 122 83t149 30v0zM187 453q46 45 98 80t109.5 58.5t119.5 36t126 12.5t126 -12.5t119.5 -36t109.5 -58.5t98 -80l-91 -91q-36 36 -78 64t-88 47t-95.5 29t-100.5 10
t-100.5 -10t-95.5 -29t-88 -47t-78 -64l-91 91v0zM989 826q40 -17 78 -37.5t73.5 -45t69 -52t64.5 -57.5v0l-91 -91q-54 54 -117 96t-132 71t-143 43.5t-151 14.5t-151 -14.5t-143 -43.5t-132 -71t-117 -96l-91 91q31 30 64.5 57.5t69 52t73.5 45t78 37.5q42 17 84.5 30
t86 22t88.5 13.5t90 4.5t90 -4.5t88.5 -13.5t86 -22t84.5 -30v0zM576 64q0 27 18.5 45.5t45.5 18.5t45.5 -18.5t18.5 -45.5t-18.5 -45.5t-45.5 -18.5t-45.5 18.5t-18.5 45.5v0z" />
    <glyph glyph-name="uniE91C" unicode="broadcast" 
d="M1024 448q0 106 -40 199.5t-109.5 163t-163 109.5t-199.5 40t-199.5 -40t-163 -109.5t-109.5 -163t-40 -199.5q0 -83 24.5 -158t69 -137.5t106 -110t134.5 -74.5l-14 -32h384l-14 32q73 27 134.5 74.5t106 110t69 137.5t24.5 158v0zM487 325q-17 8 -28 23.5t-11 35.5
q0 27 18.5 45.5t45.5 18.5t45.5 -18.5t18.5 -45.5q0 -20 -11 -35.5t-28 -23.5l-25 59l-25 -59v0zM538 323q44 9 73 44t29 81q0 53 -37.5 90.5t-90.5 37.5t-90.5 -37.5t-37.5 -90.5q0 -46 29 -81t73 -44l-75 -174q-68 29 -111.5 92.5t-43.5 142.5q0 53 20 101.5t55 85.5
t81.5 59t99.5 22t99.5 -22t81.5 -59t55 -85.5t20 -101.5q0 -79 -43.5 -142.5t-111.5 -92.5l-75 174v0zM688 -28l-73 173q47 16 87 45.5t69 69t45 87.5t16 101q0 66 -25 124.5t-68.5 102t-102 68.5t-124.5 25t-124.5 -25t-102 -68.5t-68.5 -102t-25 -124.5q0 -53 16 -101
t45 -87.5t69 -69t87 -45.5l-73 -173q-60 26 -110 67.5t-86 95t-56 117t-20 132.5q0 93 35.5 176.5t96 146.5t142 100t174.5 37t174.5 -37t142 -100t96 -146.5t35.5 -176.5q0 -69 -20 -132.5t-56 -117t-86 -95t-110 -67.5v0z" />
    <glyph glyph-name="uniE91D" unicode="feed" 
d="M384 448q0 53 37.5 90.5t90.5 37.5t90.5 -37.5t37.5 -90.5t-37.5 -90.5t-90.5 -37.5t-90.5 37.5t-37.5 90.5v0zM664 729q38 -20 69 -49.5t53 -65.5t34 -78t12 -88t-12 -88t-34 -78t-53 -65.5t-69 -49.5q33 52 52.5 125t19.5 156t-19.5 156t-52.5 125v0zM288 448
q0 -83 19.5 -156t52.5 -125q-38 20 -69 49.5t-53 65.5t-34 78t-12 88t12 88t34 78t53 65.5t69 49.5q-33 -52 -52.5 -125t-19.5 -156v0zM96 448q0 -64 10 -125t28 -116t44 -103t59 -88q-54 34 -97.5 80.5t-74.5 102t-48 118.5t-17 131t17 131t48 118.5t74.5 102t97.5 80.5
q-33 -40 -59 -88t-44 -103t-28 -116t-10 -125v0zM787 880q54 -34 97.5 -80.5t74.5 -102t48 -118.5t17 -131t-17 -131t-48 -118.5t-74.5 -102t-97.5 -80.5q33 40 59 88t44 103t28 116t10 125t-10 125t-28 116t-44 103t-59 88v0z" />
    <glyph glyph-name="uniE91E" unicode="microphone" 
d="M480 256q66 0 113 47t47 113v384q0 66 -47 113t-113 47t-113 -47t-47 -113v-384q0 -66 47 -113t113 -47v0zM704 512v-96q0 -46 -17.5 -87t-48 -71.5t-71.5 -48t-87 -17.5t-87 17.5t-71.5 48t-48 71.5t-17.5 87v96h-64v-96q0 -56 20 -105t54.5 -87.5t81 -63t100.5 -30.5
v-130h-128v-64h320v64h-128v130q54 6 100.5 30.5t81 63t54.5 87.5t20 105v96h-64v0z" />
    <glyph glyph-name="uniE91F" unicode="book" 
d="M896 832v-832h-672q-40 0 -68 28t-28 68t28 68t68 28h608v768h-640q-53 0 -90.5 -37.5t-37.5 -90.5v-768q0 -53 37.5 -90.5t90.5 -37.5h768v896h-64v0zM224 128v0v0v0q-13 0 -22.5 -9.5t-9.5 -22.5t9.5 -22.5t22.5 -9.5v0v0v0h608v64h-608v0z" />
    <glyph glyph-name="uniE920" unicode="books" horiz-adv-x="1152" 
d="M224 832h-192q-13 0 -22.5 -9.5t-9.5 -22.5v-704q0 -13 9.5 -22.5t22.5 -9.5h192q13 0 22.5 9.5t9.5 22.5v704q0 13 -9.5 22.5t-22.5 9.5v0zM192 640h-128v64h128v-64v0zM544 832h-192q-13 0 -22.5 -9.5t-9.5 -22.5v-704q0 -13 9.5 -22.5t22.5 -9.5h192q13 0 22.5 9.5
t9.5 22.5v704q0 13 -9.5 22.5t-22.5 9.5v0zM512 640h-128v64h128v-64v0zM765 783l-171 -87q-12 -6 -16 -18.5t1 -24.5l288 -571q6 -12 19 -16.5t24 1.5l172 87q12 6 16 18.5t-2 24.5l-288 571q-6 12 -18.5 16t-24.5 -1v0zM928 96q0 -13 -9.5 -22.5t-22.5 -9.5t-22.5 9.5
t-9.5 22.5t9.5 22.5t22.5 9.5t22.5 -9.5t9.5 -22.5v0z" />
    <glyph glyph-name="uniE921" unicode="bank" horiz-adv-x="1088" 
d="M1024 0v64h-64v384h64v64h-192v-64h64v-384h-192v384h64v64h-192v-64h64v-384h-192v384h64v64h-192v-64h64v-384h-192v384h64v64h-192v-64h64v-384h-64v-64h-64v-64h1088v64h-64v0zM512 960h64l512 -320v-64h-1088v64l512 320v0z" />
    <glyph glyph-name="uniE922" unicode="file&#x2d;text" 
d="M864 960h-768q-40 0 -68 -28t-28 -68v-832q0 -40 28 -68t68 -28h768q40 0 68 28t28 68v832q0 40 -28 68t-68 28v0zM832 64h-704v768h704v-768v0zM256 512h448v-64h-448v64zM256 384h448v-64h-448v64zM256 256h448v-64h-448v64zM256 640h448v-64h-448v64z" />
    <glyph glyph-name="uniE923" unicode="file&#x32;" 
d="M864 960h-768q-40 0 -68 -28t-28 -68v-832q0 -40 28 -68t68 -28h768q40 0 68 28t28 68v832q0 40 -28 68t-68 28v0zM832 64h-704v768h704v-768v0zM256 384h448v-64h-448v64zM256 256h448v-64h-448v64zM320 672q0 40 28 68t68 28t68 -28t28 -68t-28 -68t-68 -28t-68 28
t-28 68v0zM480 576h-128q-40 0 -68 -19t-28 -45v-64h320v64q0 26 -28 45t-68 19v0z" />
    <glyph glyph-name="uniE924" unicode="file&#x33;" 
d="M918 731q-17 23 -39.5 48.5l-47.5 51.5l-51.5 47.5t-48.5 39.5q-39 28 -59.5 35t-31.5 7h-496q-33 0 -56.5 -23.5t-23.5 -56.5v-864q0 -33 23.5 -56.5t56.5 -23.5h736q33 0 56.5 23.5t23.5 56.5v624q0 11 -7 31.5t-35 59.5v0zM785 785q23 -23 41.5 -43.5t31.5 -37.5h-154
v154q17 -13 37.5 -31.5t43.5 -41.5v0zM896 16q0 -7 -4.5 -11.5t-11.5 -4.5h-736q-7 0 -11.5 4.5t-4.5 11.5v864q0 7 4.5 11.5t11.5 4.5h77.5h170.5h170.5h77.5v-224q0 -13 9.5 -22.5t22.5 -9.5h224v-624v0z" />
    <glyph glyph-name="uniE925" unicode="files&#x2d;empty" 
d="M918 603q-17 23 -39.5 48.5l-47.5 51.5l-51.5 47.5t-48.5 39.5q-39 28 -59.5 35t-31.5 7h-368q-33 0 -56.5 -23.5t-23.5 -56.5v-736q0 -33 23.5 -56.5t56.5 -23.5h608q33 0 56.5 23.5t23.5 56.5v496q0 11 -7 31.5t-35 59.5v0zM785 657q23 -23 41.5 -43.5t31.5 -37.5h-154
v154q17 -13 37.5 -31.5t43.5 -41.5v0v0zM896 16q0 -7 -4.5 -11.5t-11.5 -4.5h-608q-7 0 -11.5 4.5t-4.5 11.5v736q0 7 4.5 11.5t11.5 4.5h57.5h126.5h126.5h57.5v-224q0 -13 9.5 -22.5t22.5 -9.5h224v-496v0zM603 918q-39 28 -59.5 35t-31.5 7h-368q-33 0 -56.5 -23.5
t-23.5 -56.5v-736q0 -29 18.5 -51t45.5 -27v814q0 7 4.5 11.5t11.5 4.5h487l-14 11.5l-14 10.5v0z" />
    <glyph glyph-name="uniE926" unicode="file&#x34;" 
d="M918 731q-17 23 -39.5 48.5l-47.5 51.5l-51.5 47.5t-48.5 39.5q-39 28 -59.5 35t-31.5 7h-496q-33 0 -56.5 -23.5t-23.5 -56.5v-864q0 -33 23.5 -56.5t56.5 -23.5h736q33 0 56.5 23.5t23.5 56.5v624q0 11 -7 31.5t-35 59.5v0zM785 785q23 -23 41.5 -43.5t31.5 -37.5h-154
v154q17 -13 37.5 -31.5t43.5 -41.5v0zM896 16q0 -7 -4.5 -11.5t-11.5 -4.5h-736q-7 0 -11.5 4.5t-4.5 11.5v864q0 7 4.5 11.5t11.5 4.5h77.5h170.5h170.5h77.5v-224q0 -13 9.5 -22.5t22.5 -9.5h224v-624v0zM736 128h-448q-13 0 -22.5 9.5t-9.5 22.5t9.5 22.5t22.5 9.5h448
q13 0 22.5 -9.5t9.5 -22.5t-9.5 -22.5t-22.5 -9.5v0zM736 256h-448q-13 0 -22.5 9.5t-9.5 22.5t9.5 22.5t22.5 9.5h448q13 0 22.5 -9.5t9.5 -22.5t-9.5 -22.5t-22.5 -9.5v0zM736 384h-448q-13 0 -22.5 9.5t-9.5 22.5t9.5 22.5t22.5 9.5h448q13 0 22.5 -9.5t9.5 -22.5
t-9.5 -22.5t-22.5 -9.5v0z" />
    <glyph glyph-name="uniE927" unicode="file&#x35;" 
d="M832 64h-640v128l192 320l263 -320l185 128v-256v0zM832 480q0 -40 -28 -68t-68 -28t-68 28t-28 68t28 68t68 28t68 -28t28 -68v0zM918 731q-17 23 -39.5 48.5l-47.5 51.5l-51.5 47.5t-48.5 39.5q-39 28 -59.5 35t-31.5 7h-496q-33 0 -56.5 -23.5t-23.5 -56.5v-864
q0 -33 23.5 -56.5t56.5 -23.5h736q33 0 56.5 23.5t23.5 56.5v624q0 11 -7 31.5t-35 59.5v0zM785 785q23 -23 41.5 -43.5t31.5 -37.5h-154v154q17 -13 37.5 -31.5t43.5 -41.5v0zM896 16q0 -7 -4.5 -11.5t-11.5 -4.5h-736q-7 0 -11.5 4.5t-4.5 11.5v864q0 7 4.5 11.5t11.5 4.5
h77.5h170.5h170.5h77.5v-224q0 -13 9.5 -22.5t22.5 -9.5h224v-624v0z" />
    <glyph glyph-name="uniE928" unicode="file&#x36;" 
d="M918 731q-17 23 -39.5 48.5l-47.5 51.5l-51.5 47.5t-48.5 39.5q-39 28 -59.5 35t-31.5 7h-496q-33 0 -56.5 -23.5t-23.5 -56.5v-864q0 -33 23.5 -56.5t56.5 -23.5h736q33 0 56.5 23.5t23.5 56.5v624q0 11 -7 31.5t-35 59.5v0v0zM785 785q23 -23 41.5 -43.5t31.5 -37.5
h-154v154q17 -13 37.5 -31.5t43.5 -41.5v0v0zM896 16q0 -7 -4.5 -11.5t-11.5 -4.5h-736q-7 0 -11.5 4.5t-4.5 11.5v864q0 7 4.5 11.5t11.5 4.5h77.5h170.5h170.5h77.5v-224q0 -13 9.5 -22.5t22.5 -9.5h224v-624v0zM756 569q-5 4 -12 6t-14 0l-320 -64q-11 -2 -18.5 -11
t-7.5 -20v-237q-14 6 -30.5 9.5t-33.5 3.5q-53 0 -90.5 -28t-37.5 -68t37.5 -68t90.5 -28t90.5 28t37.5 68v230l256 51v-134q-14 6 -30.5 9.5t-33.5 3.5q-53 0 -90.5 -28t-37.5 -68t37.5 -68t90.5 -28t90.5 28t37.5 68v320q0 7 -3 13.5t-9 11.5v0z" />
    <glyph glyph-name="uniE929" unicode="file&#x37;" 
d="M384 576l320 -224l-320 -224v448v0zM918 731q-17 23 -39.5 48.5l-47.5 51.5l-51.5 47.5t-48.5 39.5q-39 28 -59.5 35t-31.5 7h-496q-33 0 -56.5 -23.5t-23.5 -56.5v-864q0 -33 23.5 -56.5t56.5 -23.5h736q33 0 56.5 23.5t23.5 56.5v624q0 11 -7 31.5t-35 59.5v0zM785 785
q23 -23 41.5 -43.5t31.5 -37.5h-154v154q17 -13 37.5 -31.5t43.5 -41.5v0zM896 16q0 -7 -4.5 -11.5t-11.5 -4.5h-736q-7 0 -11.5 4.5t-4.5 11.5v864q0 7 4.5 11.5t11.5 4.5h77.5h170.5h170.5h77.5v-224q0 -13 9.5 -22.5t22.5 -9.5h224v-624v0z" />
    <glyph glyph-name="uniE92A" unicode="file&#x38;" 
d="M918 731q-17 23 -39.5 48.5l-47.5 51.5l-51.5 47.5t-48.5 39.5q-39 28 -59.5 35t-31.5 7h-496q-33 0 -56.5 -23.5t-23.5 -56.5v-864q0 -33 23.5 -56.5t56.5 -23.5h736q33 0 56.5 23.5t23.5 56.5v624q0 11 -7 31.5t-35 59.5v0v0v0zM785 785q23 -23 41.5 -43.5t31.5 -37.5
h-154v154q17 -13 37.5 -31.5t43.5 -41.5v0v0v0zM896 16q0 -7 -4.5 -11.5t-11.5 -4.5h-736q-7 0 -11.5 4.5t-4.5 11.5v864q0 7 4.5 11.5t11.5 4.5h77.5h170.5h170.5h77.5v-224q0 -13 9.5 -22.5t22.5 -9.5h224v-624v0zM256 448h320v-320h-320v320v0zM576 320l192 128v-320
l-192 128v64z" />
    <glyph glyph-name="uniE92B" unicode="file&#x39;" 
d="M918 731q-17 23 -39.5 48.5l-47.5 51.5l-51.5 47.5t-48.5 39.5q-39 28 -59.5 35t-31.5 7h-496q-33 0 -56.5 -23.5t-23.5 -56.5v-864q0 -33 23.5 -56.5t56.5 -23.5h736q33 0 56.5 23.5t23.5 56.5v624q0 11 -7 31.5t-35 59.5v0v0v0zM785 785q23 -23 41.5 -43.5t31.5 -37.5
h-154v154q17 -13 37.5 -31.5t43.5 -41.5v0v0v0zM896 16q0 -7 -4.5 -11.5t-11.5 -4.5h-736q-7 0 -11.5 4.5t-4.5 11.5v864q0 7 4.5 11.5t11.5 4.5h77.5h170.5h170.5h77.5v-224q0 -13 9.5 -22.5t22.5 -9.5h224v-624v0zM256 896h128v-64h-128v64v0zM384 832h128v-64h-128v64v0z
M256 768h128v-64h-128v64v0zM384 704h128v-64h-128v64v0zM256 640h128v-64h-128v64v0zM384 576h128v-64h-128v64v0zM256 512h128v-64h-128v64v0zM384 448h128v-64h-128v64v0zM256 112q0 -20 14 -34t34 -14h160q20 0 34 14t14 34v160q0 20 -14 34t-34 14h-80v64h-128v-272v0z
M448 192v-64h-128v64h128v0z" />
    <glyph glyph-name="uniE92C" unicode="copy" 
d="M640 704v256h-448l-192 -192v-576h384v-256h640v768h-384v0zM192 869v-101h-101l101 101v0zM64 256v448h192v192h320v-192l-192 -192v-256h-320v0zM576 613v-101h-101l101 101v0zM960 0h-512v448h192v192h320v-640v0z" />
    <glyph glyph-name="uniE92D" unicode="clipboard&#x2d;file" 
d="M704 832h-128v64q0 26 -19 45t-45 19h-128q-26 0 -45 -19t-19 -45v-64h-128v-128h512v128v0zM512 832h-128v64v0v0h128v0v0v-64v0zM832 640v160q0 13 -9.5 22.5t-22.5 9.5h-64v-64h32v-128h-192l-192 -192v-256h-256v576h32v64h-64q-13 0 -22.5 -9.5t-9.5 -22.5v-640
q0 -13 9.5 -22.5t22.5 -9.5h288v-192h640v704h-192v0zM576 549v-101h-101l101 101v0zM960 0h-512v384h192v192h320v-576v0z" />
    <glyph glyph-name="uniE92E" unicode="layers" 
d="M1024 640l-512 256l-512 -256l512 -256l512 256v0zM512 811l342 -171l-342 -171l-342 171l342 171v0zM921 499l103 -51l-512 -256l-512 256l103 51l409 -204zM921 307l103 -51l-512 -256l-512 256l103 51l409 -204z" />
    <glyph glyph-name="uniE92F" unicode="directory" 
d="M448 832l128 -128h448v-704h-1024v832h448z" />
    <glyph glyph-name="uniE930" unicode="directory&#x32;" 
d="M832 0l192 512h-832l-192 -512h832zM128 576l-128 -576v832h288l128 -128h416v-128h-704z" />
    <glyph glyph-name="uniE931" unicode="directory&#x33;" 
d="M576 704l-128 128h-448v-832h1024v704h-448v0zM704 256h-128v-128h-128v128h-128v128h128v128h128v-128h128v-128v0z" />
    <glyph glyph-name="uniE932" unicode="directory&#x34;" 
d="M576 704l-128 128h-448v-832h1024v704h-448v0zM704 256h-384v128h384v-128v0z" />
    <glyph glyph-name="uniE933" unicode="directory&#x35;" 
d="M576 704l-128 128h-448v-832h1024v704h-448v0zM512 96l-224 224h160v256h128v-256h160l-224 -224v0z" />
    <glyph glyph-name="uniE934" unicode="directory&#x36;" 
d="M576 704l-128 128h-448v-832h1024v704h-448v0zM512 480l224 -224h-160v-256h-128v256h-160l224 224v0z" />
    <glyph glyph-name="uniE935" unicode="price&#x2d;tag" 
d="M976 960h-384q-20 0 -44 -10t-38 -24l-476 -476q-14 -14 -14 -34t14 -34l412 -412q14 -14 34 -14t34 14l476 476q14 14 24 38t10 44v384q0 20 -14 34t-34 14v0zM736 576q-40 0 -68 28t-28 68t28 68t68 28t68 -28t28 -68t-28 -68t-68 -28v0z" />
    <glyph glyph-name="uniE936" unicode="price&#x2d;tags" horiz-adv-x="1280" 
d="M1232 960h-384q-20 0 -44 -10t-38 -24l-476 -476q-14 -14 -14 -34t14 -34l412 -412q14 -14 34 -14t34 14l476 476q14 14 24 38t10 44v384q0 20 -14 34t-34 14v0zM992 576q-40 0 -68 28t-28 68t28 68t68 28t68 -28t28 -68t-28 -68t-68 -28v0zM128 416l544 544h-80
q-20 0 -44 -10t-38 -24l-476 -476q-14 -14 -14 -34t14 -34l412 -412q14 -14 34 -14t34 14l30 30l-416 416v0z" />
    <glyph glyph-name="uniE937" unicode="barcode" 
d="M0 832h128v-640h-128v640zM192 832h64v-640h-64v640zM320 832h64v-640h-64v640zM512 832h64v-640h-64v640zM768 832h64v-640h-64v640zM960 832h64v-640h-64v640zM640 832h32v-640h-32v640zM448 832h32v-640h-32v640zM864 832h32v-640h-32v640zM0 128h64v-64h-64v64z
M192 128h64v-64h-64v64zM320 128h64v-64h-64v64zM640 128h64v-64h-64v64zM960 128h64v-64h-64v64zM768 128h128v-64h-128v64zM448 128h128v-64h-128v64z" />
    <glyph glyph-name="uniE938" unicode="qrcode" 
d="M320 896h-256v-256h256v256v0zM384 960v0v-384h-384v384h384v0zM128 832h128v-128h-128v128zM960 896h-256v-256h256v256v0zM1024 960v0v-384h-384v384h384v0zM768 832h128v-128h-128v128zM320 256h-256v-256h256v256v0zM384 320v0v-384h-384v384h384v0zM128 192h128
v-128h-128v128zM448 960h64v-64h-64v64zM512 896h64v-64h-64v64zM448 832h64v-64h-64v64zM512 768h64v-64h-64v64zM448 704h64v-64h-64v64zM512 640h64v-64h-64v64zM448 576h64v-64h-64v64zM448 448h64v-64h-64v64zM512 384h64v-64h-64v64zM448 320h64v-64h-64v64zM512 256
h64v-64h-64v64zM448 192h64v-64h-64v64zM512 128h64v-64h-64v64zM448 64h64v-64h-64v64zM512 0h64v-64h-64v64zM960 448h64v-64h-64v64zM64 448h64v-64h-64v64zM128 512h64v-64h-64v64zM0 512h64v-64h-64v64zM256 512h64v-64h-64v64zM320 448h64v-64h-64v64zM384 512h64v-64
h-64v64zM576 448h64v-64h-64v64zM640 512h64v-64h-64v64zM704 448h64v-64h-64v64zM768 512h64v-64h-64v64zM832 448h64v-64h-64v64zM896 512h64v-64h-64v64zM960 320h64v-64h-64v64zM576 320h64v-64h-64v64zM640 384h64v-64h-64v64zM704 320h64v-64h-64v64zM832 320h64v-64
h-64v64zM896 384h64v-64h-64v64zM960 192h64v-64h-64v64zM576 192h64v-64h-64v64zM640 256h64v-64h-64v64zM768 256h64v-64h-64v64zM832 192h64v-64h-64v64zM896 256h64v-64h-64v64zM960 64h64v-64h-64v64zM640 128h64v-64h-64v64zM704 64h64v-64h-64v64zM768 128h64v-64
h-64v64zM832 64h64v-64h-64v64zM640 0h64v-64h-64v64zM768 0h64v-64h-64v64zM896 0h64v-64h-64v64z" />
    <glyph glyph-name="uniE939" unicode="ticket" 
d="M576 640l128 -128l-256 -256l-128 128zM1002 662l-74 74l-32 -32q-12 -12 -28.5 -19.5t-35.5 -7.5q-37 0 -64 27t-27 64q0 19 7.5 35.5t19.5 28.5l32 32l-74 74q-22 22 -54 22t-54 -22l-596 -596q-22 -22 -22 -54t22 -54l74 -74l32 32q12 12 28.5 19.5t35.5 7.5
q37 0 64 -27t27 -64q0 -19 -7.5 -35.5t-19.5 -28.5l-32 -32l74 -74q22 -22 54 -22t54 22l596 596q22 22 22 54t-22 54v0zM448 128l-256 256l384 384l256 -256l-384 -384v0z" />
    <glyph glyph-name="uniE93A" unicode="cart" 
d="M384 32q0 -40 -28 -68t-68 -28t-68 28t-28 68t28 68t68 28t68 -28t28 -68v0zM1024 32q0 -40 -28 -68t-68 -28t-68 28t-28 68t28 68t68 28t68 -28t28 -68v0zM1024 448v384h-768q0 27 -18.5 45.5t-45.5 18.5h-192v-64h128l48 -412q-22 -18 -35 -44t-13 -56
q0 -53 37.5 -90.5t90.5 -37.5h768v64h-768q-27 0 -45.5 18.5t-18.5 45.5v0v1l832 127v0z" />
    <glyph glyph-name="uniE93B" unicode="coin&#x2d;dollar" 
d="M480 896q-99 0 -186.5 -37.5t-153 -103t-103 -153t-37.5 -186.5t37.5 -186.5t103 -153t153 -103t186.5 -37.5t186.5 37.5t153 103t103 153t37.5 186.5t-37.5 186.5t-103 153t-153 103t-186.5 37.5v0zM480 32q-80 0 -149.5 30t-122 82.5t-82.5 122t-30 149.5t30 149.5
t82.5 122t122 82.5t149.5 30t149.5 -30t122 -82.5t82.5 -122t30 -149.5t-30 -149.5t-82.5 -122t-122 -82.5t-149.5 -30v0zM512 448v128h128v64h-128v64h-64v-64h-128v-256h128v-128h-128v-64h128v-64h64v64h128v256h-128v0zM448 448h-64v128h64v-128v0zM576 256h-64v128h64
v-128v0z" />
    <glyph glyph-name="uniE93C" unicode="coin&#x2d;euro" 
d="M480 896q-99 0 -186.5 -37.5t-153 -103t-103 -153t-37.5 -186.5t37.5 -186.5t103 -153t153 -103t186.5 -37.5t186.5 37.5t153 103t103 153t37.5 186.5t-37.5 186.5t-103 153t-153 103t-186.5 37.5v0zM480 32q-80 0 -149.5 30t-122 82.5t-82.5 122t-30 149.5t30 149.5
t82.5 122t122 82.5t149.5 30t149.5 -30t122 -82.5t82.5 -122t30 -149.5t-30 -149.5t-82.5 -122t-122 -82.5t-149.5 -30v0zM671 316q-12 6 -24.5 3t-19.5 -15q-13 -22 -35.5 -35t-47.5 -13h-128q-31 0 -56 18t-34 46h154q13 0 22.5 9.5t9.5 22.5t-9.5 22.5t-22.5 9.5h-160v64
h160q13 0 22.5 9.5t9.5 22.5t-9.5 22.5t-22.5 9.5h-154q9 28 34 46t56 18h128q25 0 47.5 -13t35.5 -35q7 -12 19.5 -15t24.5 3q11 7 14.5 20t-3.5 24q-21 37 -58 58.5t-80 21.5h-128q-58 0 -102 -36.5t-55 -91.5h-35q-13 0 -22.5 -9.5t-9.5 -22.5t9.5 -22.5t22.5 -9.5h32
v-64h-32q-13 0 -22.5 -9.5t-9.5 -22.5t9.5 -22.5t22.5 -9.5h35q11 -55 55 -91.5t102 -36.5h128q43 0 80 21.5t58 58.5q7 11 3.5 24t-14.5 20v0z" />
    <glyph glyph-name="uniE93D" unicode="coin&#x2d;pound" 
d="M480 896q-99 0 -186.5 -37.5t-153 -103t-103 -153t-37.5 -186.5t37.5 -186.5t103 -153t153 -103t186.5 -37.5t186.5 37.5t153 103t103 153t37.5 186.5t-37.5 186.5t-103 153t-153 103t-186.5 37.5v0zM480 32q-80 0 -149.5 30t-122 82.5t-82.5 122t-30 149.5t30 149.5
t82.5 122t122 82.5t149.5 30t149.5 -30t122 -82.5t82.5 -122t30 -149.5t-30 -149.5t-82.5 -122t-122 -82.5t-149.5 -30v0zM608 256h-224v128h96q13 0 22.5 9.5t9.5 22.5t-9.5 22.5t-22.5 9.5h-96v32q0 40 28 68t68 28q26 0 48 -13t35 -35q7 -12 19.5 -15t24.5 3
q11 7 14.5 20t-2.5 24q-22 37 -59 58.5t-80 21.5q-66 0 -113 -47t-47 -113v-32h-32q-13 0 -22.5 -9.5t-9.5 -22.5t9.5 -22.5t22.5 -9.5h32v-192h288q13 0 22.5 9.5t9.5 22.5t-9.5 22.5t-22.5 9.5v0z" />
    <glyph glyph-name="uniE93E" unicode="coin&#x2d;yen" 
d="M480 896q-99 0 -186.5 -37.5t-153 -103t-103 -153t-37.5 -186.5t37.5 -186.5t103 -153t153 -103t186.5 -37.5t186.5 37.5t153 103t103 153t37.5 186.5t-37.5 186.5t-103 153t-153 103t-186.5 37.5v0zM480 32q-80 0 -149.5 30t-122 82.5t-82.5 122t-30 149.5t30 149.5
t82.5 122t122 82.5t149.5 30t149.5 -30t122 -82.5t82.5 -122t30 -149.5t-30 -149.5t-82.5 -122t-122 -82.5t-149.5 -30v0zM608 384q13 0 22.5 9.5t9.5 22.5t-9.5 22.5t-22.5 9.5h-68l95 142q7 11 4.5 24t-13.5 21q-11 7 -24 4.5t-21 -13.5l-101 -152l-101 152
q-8 11 -21 13.5t-24 -4.5q-11 -8 -13.5 -21t4.5 -24l95 -142h-68q-13 0 -22.5 -9.5t-9.5 -22.5t9.5 -22.5t22.5 -9.5h96v-64h-96q-13 0 -22.5 -9.5t-9.5 -22.5t9.5 -22.5t22.5 -9.5h96v-96q0 -13 9.5 -22.5t22.5 -9.5t22.5 9.5t9.5 22.5v96h96q13 0 22.5 9.5t9.5 22.5
t-9.5 22.5t-22.5 9.5h-96v64h96v0z" />
    <glyph glyph-name="uniE93F" unicode="credit&#x2d;card" 
d="M928 832h-832q-40 0 -68 -28t-28 -68v-576q0 -40 28 -68t68 -28h832q40 0 68 28t28 68v576q0 40 -28 68t-68 28v0zM96 768h832q13 0 22.5 -9.5t9.5 -22.5v-96h-896v96q0 13 9.5 22.5t22.5 9.5v0zM928 128h-832q-13 0 -22.5 9.5t-9.5 22.5v288h896v-288q0 -13 -9.5 -22.5
t-22.5 -9.5v0zM128 320h64v-128h-64v128zM256 320h64v-128h-64v128zM384 320h64v-128h-64v128z" />
    <glyph glyph-name="uniE940" unicode="compute" 
d="M384 896h-320q-26 0 -45 -19t-19 -45v-320q0 -26 19 -45t45 -19h320q26 0 45 19t19 45v320q0 26 -19 45t-45 19v0zM384 640h-320v64h320v-64v0zM896 896h-320q-26 0 -45 -19t-19 -45v-832q0 -26 19 -45t45 -19h320q26 0 45 19t19 45v832q0 26 -19 45t-45 19v0zM896 320
h-320v64h320v-64v0zM896 512h-320v64h320v-64v0zM384 384h-320q-26 0 -45 -19t-19 -45v-320q0 -26 19 -45t45 -19h320q26 0 45 19t19 45v320q0 26 -19 45t-45 19v0zM384 128h-128v-128h-64v128h-128v64h128v128h64v-128h128v-64v0z" />
    <glyph glyph-name="uniE941" unicode="lifebuoy" 
d="M512 960q-106 0 -199.5 -40t-163 -109.5t-109.5 -163t-40 -199.5t40 -199.5t109.5 -163t163 -109.5t199.5 -40t199.5 40t163 109.5t109.5 163t40 199.5t-40 199.5t-109.5 163t-163 109.5t-199.5 40v0zM320 448q0 80 56 136t136 56t136 -56t56 -136t-56 -136t-136 -56
t-136 56t-56 136v0zM926 277v0l-177 73q9 23 14 47.5t5 50.5t-5 50.5t-14 47.5l177 73q16 -39 25 -82t9 -89t-9 -89t-25 -82v0v0zM683 862v0v0l-73 -177q-23 9 -47.5 14t-50.5 5t-50.5 -5t-47.5 -14l-73 177q39 16 82 25t89 9t89 -9t82 -25v0zM98 619l177 -73
q-9 -23 -14 -47.5t-5 -50.5t5 -50.5t14 -47.5l-177 -73q-16 39 -25 82t-9 89t9 89t25 82v0zM341 34l73 177q23 -9 47.5 -14t50.5 -5t50.5 5t47.5 14l73 -177q-39 -16 -82 -25t-89 -9t-89 9t-82 25v0z" />
    <glyph glyph-name="uniE942" unicode="phone" 
d="M704 320q-48 -48 -64 -88t-64 -40t-96 40t-96 88t-88 96t-40 96t40 64t88 64q24 24 6 67t-54 85t-78 73t-66 31t-57 -30t-63 -66t-51 -66l-21 -30q0 -48 22.5 -116.5t59 -141t82 -140t92.5 -114.5t114.5 -92.5t140 -82t141 -59t116.5 -22.5l30 21t66 51t66 63t30 57
t-31 66t-73 78t-85 54t-67 -6v0z" />
    <glyph glyph-name="uniE943" unicode="phone&#x2d;hang&#x2d;up" 
d="M1017 384q6 -42 6.5 -90.5t-17.5 -69.5q-16 -18 -65 -26.5t-101.5 -4t-94 23.5t-41.5 55t16.5 64t-14.5 64q-31 35 -82 41.5t-112 6.5t-112 -6.5t-82 -41.5q-31 -36 -14.5 -64t16.5 -64t-41.5 -55t-94 -23.5t-101.5 4t-65 26.5q-18 21 -17.5 69.5t6.5 90.5q4 28 19 59
t52 69v0v0q28 26 64.5 49t87.5 40.5t119 28t159 10.5v0h2h2h2h2v0q91 0 159 -10.5t119 -28t87.5 -40.5t64.5 -49v0v0q37 -38 52 -69t19 -59v0z" />
    <glyph glyph-name="uniE944" unicode="address&#x2d;book" 
d="M192 960v-1024h768v1024h-768v0zM576 704q53 0 90.5 -37.5t37.5 -90.5t-37.5 -90.5t-90.5 -37.5t-90.5 37.5t-37.5 90.5t37.5 90.5t90.5 37.5v0v0zM768 192h-384v64q0 53 37.5 90.5t90.5 37.5v0h128q53 0 90.5 -37.5t37.5 -90.5v-64v0zM64 896h96v-192h-96v192v0zM64 640
h96v-192h-96v192v0zM64 384h96v-192h-96v192v0zM64 128h96v-192h-96v192v0z" />
    <glyph glyph-name="uniE945" unicode="envelop" 
d="M928 832h-832q-40 0 -68 -28t-28 -68v-640q0 -40 28 -68t68 -28h832q40 0 68 28t28 68v640q0 40 -28 68t-68 28v0zM399 410l-271 -211v501l271 -290v0zM176 704h672l-336 -252l-336 252v0zM409 398l103 -110l103 110l210 -270h-626l210 270v0zM625 410l271 290v-501
l-271 211v0z" />
    <glyph glyph-name="uniE946" unicode="pushpin" 
d="M544 960l-96 -96l96 -96l-224 -256h-224l176 -176l-272 -361v-39h39l361 272l176 -176v224l256 224l96 -96l96 96l-480 480v0zM448 416l-64 64l224 224l64 -64l-224 -224v0z" />
    <glyph glyph-name="uniE947" unicode="location" 
d="M512 960q-66 0 -124.5 -25t-102 -68.5t-68.5 -102t-25 -124.5q0 -120 50 -245t110 -227t110 -167l50 -65l50 65t110 167t110 227t50 245q0 66 -25 124.5t-68.5 102t-102 68.5t-124.5 25v0zM512 448q-80 0 -136 56t-56 136t56 136t136 56t136 -56t56 -136t-56 -136
t-136 -56v0z" />
    <glyph glyph-name="uniE948" unicode="location&#x32;" 
d="M512 960q-66 0 -124.5 -25t-102 -68.5t-68.5 -102t-25 -124.5q0 -120 50 -245t110 -227t110 -167l50 -65l50 65t110 167t110 227t50 245q0 66 -25 124.5t-68.5 102t-102 68.5t-124.5 25v0zM512 444q-41 0 -76.5 15.5t-62 42t-42 62t-15.5 76.5t15.5 76.5t42 62t62 42
t76.5 15.5t76.5 -15.5t62 -42t42 -62t15.5 -76.5t-15.5 -76.5t-42 -62t-62 -42t-76.5 -15.5v0zM388 640q0 51 36.5 87.5t87.5 36.5t87.5 -36.5t36.5 -87.5t-36.5 -87.5t-87.5 -36.5t-87.5 36.5t-36.5 87.5v0z" />
    <glyph glyph-name="uniE949" unicode="compass" 
d="M544 -64h-3.5t-3.5 1q-11 2 -18 11t-7 20v480h-480q-11 0 -20 7t-11 18q-3 11 2 21t15 15l960 448q10 4 19.5 2.5t17.5 -8.5q7 -8 8.5 -17.5t-2.5 -19.5l-448 -960q-4 -8 -12 -13t-17 -5v0zM176 512h368q13 0 22.5 -9.5t9.5 -22.5v-368l350 750l-750 -350v0z" />
    <glyph glyph-name="uniE94A" unicode="compass&#x32;" 
d="M512 960q-106 0 -199.5 -40t-163 -109.5t-109.5 -163t-40 -199.5t40 -199.5t109.5 -163t163 -109.5t199.5 -40t199.5 40t163 109.5t109.5 163t40 199.5t-40 199.5t-109.5 163t-163 109.5t-199.5 40v0zM96 448q0 86 32.5 162t89 132.5t132.5 89t162 32.5q82 0 155 -30
t129 -82l-412 -176l-176 -412q-52 56 -82 129t-30 155v0zM585 375l-256 -110l110 256l146 -146v0zM512 32q-82 0 -155 30t-129 82l412 176l176 412q52 -56 82 -129t30 -155q0 -86 -32.5 -162t-89 -132.5t-132.5 -89t-162 -32.5v0z" />
    <glyph glyph-name="uniE94B" unicode="guide" 
d="M0 768l320 128v-768l-320 -128v768zM384 928l320 -192v-736l-320 160v768zM768 736l256 192v-768l-256 -192v768z" />
    <glyph glyph-name="uniE94C" unicode="guide&#x32;" 
d="M672 768l-320 128l-352 -128v-768l352 128l320 -128l352 128v768l-352 -128v0zM384 814l256 -102v-630l-256 102v630v0zM64 723l256 93v-632l-256 -93v632v0zM960 173l-256 -93v632l256 93v-632v0z" />
    <glyph glyph-name="uniE94D" unicode="history" horiz-adv-x="1088" 
d="M640 896q93 0 174.5 -35t142.5 -96t96 -142.5t35 -174.5t-35 -174.5t-96 -142.5t-142.5 -96t-174.5 -35v96q71 0 135 26.5t114 76.5t76.5 114t26.5 135t-26.5 135t-76.5 114t-114 76.5t-135 26.5t-135 -26.5t-114 -76.5q-38 -38 -63 -85.5t-34 -99.5h186l-224 -256
l-224 256h165q11 81 50 151.5t98 122t134.5 81t160.5 29.5v0zM832 512v-128h-256v320h128v-192h128z" />
    <glyph glyph-name="uniE94E" unicode="clock" 
d="M659 211l-211 210v283h128v-229l173 -174zM512 960q-106 0 -199.5 -40t-163 -109.5t-109.5 -163t-40 -199.5t40 -199.5t109.5 -163t163 -109.5t199.5 -40t199.5 40t163 109.5t109.5 163t40 199.5t-40 199.5t-109.5 163t-163 109.5t-199.5 40v0zM512 64q-80 0 -149.5 30
t-122 82.5t-82.5 122t-30 149.5t30 149.5t82.5 122t122 82.5t149.5 30t149.5 -30t122 -82.5t82.5 -122t30 -149.5t-30 -149.5t-82.5 -122t-122 -82.5t-149.5 -30v0z" />
    <glyph glyph-name="uniE94F" unicode="clock&#x32;" 
d="M512 960q-106 0 -199.5 -40t-163 -109.5t-109.5 -163t-40 -199.5t40 -199.5t109.5 -163t163 -109.5t199.5 -40t199.5 40t163 109.5t109.5 163t40 199.5t-40 199.5t-109.5 163t-163 109.5t-199.5 40v0zM659 211l-211 210v283h128v-229l173 -174l-90 -90v0z" />
    <glyph glyph-name="uniE950" unicode="alarm" 
d="M512 832q-93 0 -174.5 -35t-142.5 -96t-96 -142.5t-35 -174.5t35 -174.5t96 -142.5t142.5 -96t174.5 -35t174.5 35t142.5 96t96 142.5t35 174.5t-35 174.5t-96 142.5t-142.5 96t-174.5 35v0zM512 24q-75 0 -140.5 28.5t-114 77t-77 114t-28.5 140.5t28.5 140.5t77 114
t114 77t140.5 28.5t140.5 -28.5t114 -77t77 -114t28.5 -140.5t-28.5 -140.5t-77 -114t-114 -77t-140.5 -28.5v0zM935 673q12 21 18.5 45t6.5 50q0 80 -56 136t-136 56q-46 0 -86 -20.5t-66 -54.5q50 -10 95.5 -29.5t86 -46.5t75 -61.5t62.5 -74.5v0v0zM408 885
q-26 34 -66 54.5t-86 20.5q-80 0 -136 -56t-56 -136q0 -26 6.5 -50t18.5 -45q28 40 62.5 74.5t75 61.5t86 46.5t95.5 29.5v0zM512 384v256h-64v-320h256v64h-192z" />
    <glyph glyph-name="uniE951" unicode="alarm&#x32;" 
d="M1025 160q0 108 -39.5 160t-87.5 88t-88 76t-40 124q0 14 -1.5 26t-4.5 22q-6 42 -22.5 79.5t-41.5 68t-57 52t-68 31.5q0 3 0.5 6t0.5 6q0 25 -19 43t-45 18t-45 -18t-19 -42q0 -4 0.5 -7t0.5 -6q-41 -11 -76 -37t-60.5 -61.5t-40.5 -80.5t-16 -94v-3.5v-2.5
q0 -84 -40 -124t-88 -76t-88 -88t-40 -160q0 -29 30 -54.5t83.5 -46t126.5 -35t159 -20.5q16 -30 46 -49t67 -19t67 19t46 49q86 6 159 20.5t126.5 35t83.5 46t30 54.5v0.5v0.5l2 -1h-1zM826 106q-40 -11 -87.5 -18.5t-99.5 -12.5q-4 49 -40.5 83t-86.5 34t-86.5 -34
t-40.5 -83q-52 5 -99.5 12.5t-87.5 18.5q-56 15 -85 30t-39 24q10 9 39 24t85 30q32 9 69 15.5t77 11t82.5 7t85.5 2.5t85.5 -2.5t82.5 -7t77 -11t69 -15.5q56 -15 85 -30t39 -24q-10 -9 -39 -24t-85 -30v0z" />
    <glyph glyph-name="uniE952" unicode="stopwatch" 
d="M512 767v65h128v64q0 27 -18.5 45.5t-45.5 18.5h-192q-27 0 -45.5 -18.5t-18.5 -45.5v-64h128v-65q-81 -6 -151 -41t-121.5 -90.5t-81.5 -128.5t-30 -155q0 -86 32.5 -162t89 -132.5t132.5 -89t162 -32.5t162 32.5t132.5 89t89 132.5t32.5 162q0 82 -30 155t-81.5 128.5
t-121.5 90.5t-151 41v0zM706 126q-45 -46 -103.5 -70t-122.5 -24t-122.5 24t-103.5 70q-46 45 -70 103.5t-24 122.5t24 122.5t70 103.5q43 44 99 68t117 26l-22 -314q-1 -20 8 -29t24 -9t24 9t8 29l-22 314q61 -2 117 -26t99 -68q46 -45 70 -103.5t24 -122.5t-24 -122.5
t-70 -103.5v0z" />
    <glyph glyph-name="uniE953" unicode="calendar" 
d="M320 576h128v-128h-128v128zM512 576h128v-128h-128v128zM704 576h128v-128h-128v128zM128 192h128v-128h-128v128zM320 192h128v-128h-128v128zM512 192h128v-128h-128v128zM320 384h128v-128h-128v128zM512 384h128v-128h-128v128zM704 384h128v-128h-128v128zM128 384
h128v-128h-128v128zM832 960v-64h-128v64h-448v-64h-128v64h-128v-1024h960v1024h-128v0zM896 0h-832v704h832v-704v0z" />
    <glyph glyph-name="uniE954" unicode="printer" 
d="M256 896h512v-128h-512v128v0zM960 704h-896q-26 0 -45 -19t-19 -45v-320q0 -26 19 -45t45 -19h192v-256h512v256h192q26 0 45 19t19 45v320q0 26 -19 45t-45 19v0zM128 512q-27 0 -45.5 18.5t-18.5 45.5t18.5 45.5t45.5 18.5t45.5 -18.5t18.5 -45.5t-18.5 -45.5
t-45.5 -18.5v0zM704 64h-384v320h384v-320v0z" />
    <glyph glyph-name="uniE955" unicode="keyboard" horiz-adv-x="1152" 
d="M1088 832h-1024q-26 0 -45 -19t-19 -45v-640q0 -26 19 -45t45 -19h1024q26 0 45 19t19 45v640q0 26 -19 45t-45 19v0zM640 704h128v-128h-128v128v0zM832 512v-128h-128v128h128v0zM448 704h128v-128h-128v128v0zM640 512v-128h-128v128h128v0zM256 704h128v-128h-128
v128v0zM448 512v-128h-128v128h128v0zM128 704h64v-128h-64v128v0zM128 512h128v-128h-128v128v0zM192 192h-64v128h64v-128v0zM768 192h-512v128h512v-128v0zM1024 192h-192v128h192v-128v0zM1024 384h-128v128h128v-128v0zM1024 576h-192v128h192v-128v0z" />
    <glyph glyph-name="uniE956" unicode="display" 
d="M0 896v-640h1024v640h-1024v0zM960 320h-896v512h896v-512v0zM672 192h-320l-32 -128l-64 -64h512l-64 64z" />
    <glyph glyph-name="uniE957" unicode="computer" 
d="M896 256v512q0 26 -19 45t-45 19h-640q-26 0 -45 -19t-19 -45v-512h-128v-192h1024v192h-128v0zM640 128h-256v64h256v-64v0zM832 256h-640v512v0v0h640v0v0v-512v0z" />
    <glyph glyph-name="uniE958" unicode="cell&#x2d;phone" 
d="M736 960h-448q-40 0 -68 -28t-28 -68v-832q0 -40 28 -68t68 -28h448q40 0 68 28t28 68v832q0 40 -28 68t-68 28v0zM384 912h256v-32h-256v32v0zM512 0q-27 0 -45.5 18.5t-18.5 45.5t18.5 45.5t45.5 18.5t45.5 -18.5t18.5 -45.5t-18.5 -45.5t-45.5 -18.5v0zM768 192h-512
v640h512v-640v0z" />
    <glyph glyph-name="uniE959" unicode="cell&#x2d;phone&#x32;" 
d="M768 960h-576q-26 0 -45 -19t-19 -45v-896q0 -26 19 -45t45 -19h576q26 0 45 19t19 45v896q0 26 -19 45t-45 19v0zM480 -18q-21 0 -35.5 14.5t-14.5 35.5t14.5 35.5t35.5 14.5t35.5 -14.5t14.5 -35.5t-14.5 -35.5t-35.5 -14.5v0zM768 128h-576v704h576v-704v0z" />
    <glyph glyph-name="uniE95A" unicode="mobile&#x33;" 
d="M800 960h-640q-40 0 -68 -28t-28 -68v-832q0 -40 28 -68t68 -28h640q40 0 68 28t28 68v832q0 40 -28 68t-68 28v0zM480 -32q-13 0 -22.5 9.5t-9.5 22.5t9.5 22.5t22.5 9.5t22.5 -9.5t9.5 -22.5t-9.5 -22.5t-22.5 -9.5v0zM768 64h-576v768h576v-768v0z" />
    <glyph glyph-name="uniE95B" unicode="tv" 
d="M981 672q-66 9 -137 16t-145 11l165 165l-64 64l-225 -225q-15 1 -31 1h-32v0l-256 256l-64 -64l194 -194q-45 -2 -89.5 -4.5t-87.5 -6.5t-84.5 -8.5t-81.5 -10.5q-11 -41 -18.5 -83t-13 -86.5t-8.5 -90t-3 -92.5t3 -92.5t8.5 -90t13 -86.5t18.5 -83q54 -8 110.5 -14
t115.5 -10t119.5 -6t123.5 -2t123.5 2t119.5 6t115.5 10t110.5 14q11 41 18.5 83t13 86.5t8.5 90t3 92.5t-3 92.5t-8.5 90t-13 86.5t-18.5 83v0zM864 85q-41 -5 -83 -9t-86.5 -6.5t-90 -4t-92.5 -1.5t-92.5 1.5t-90 4t-86.5 6.5t-83 9q-15 54 -23.5 113t-8.5 122t8.5 122
t23.5 113q41 5 83 9t86.5 6.5t90 4t92.5 1.5t92.5 -1.5t90 -4t86.5 -6.5t83 -9q15 -54 23.5 -113t8.5 -122t-8.5 -122t-23.5 -113v0z" />
    <glyph glyph-name="uniE95C" unicode="box" 
d="M1017 308l-256 320q-5 6 -11.5 9t-13.5 3h-448q-7 0 -13.5 -3t-11.5 -9l-256 -320q-3 -4 -5 -9.5t-2 -10.5v-288q0 -27 18.5 -45.5t45.5 -18.5h896q27 0 45.5 18.5t18.5 45.5v288q0 5 -2 10.5t-5 9.5v0zM960 256h-224l-128 -128h-192l-128 128h-224v21l239 299h418
l239 -299v-21v0zM736 448h-448q-13 0 -22.5 9.5t-9.5 22.5t9.5 22.5t22.5 9.5h448q13 0 22.5 -9.5t9.5 -22.5t-9.5 -22.5t-22.5 -9.5v0zM800 320h-576q-13 0 -22.5 9.5t-9.5 22.5t9.5 22.5t22.5 9.5h576q13 0 22.5 -9.5t9.5 -22.5t-9.5 -22.5t-22.5 -9.5v0z" />
    <glyph glyph-name="uniE95D" unicode="box&#x32;" 
d="M1017 308l-256 320q-5 6 -11.5 9t-13.5 3h-448q-7 0 -13.5 -3t-11.5 -9l-256 -320q-3 -4 -5 -9.5t-2 -10.5v-288q0 -27 18.5 -45.5t45.5 -18.5h896q27 0 45.5 18.5t18.5 45.5v288q0 5 -2 10.5t-5 9.5v0zM960 256h-224l-128 -128h-192l-128 128h-224v21l239 299h418
l239 -299v-21v0z" />
    <glyph glyph-name="uniE95E" unicode="box&#x33;" 
d="M832 896h-640l-192 -192v-672q0 -13 9.5 -22.5t22.5 -9.5h960q13 0 22.5 9.5t9.5 22.5v672l-192 192v0zM512 128l-320 256h192v192h256v-192h192l-320 -256v0zM155 768l64 64h586l64 -64h-714v0z" />
    <glyph glyph-name="uniE95F" unicode="box&#x34;" 
d="M832 896h-640l-192 -192v-672q0 -13 9.5 -22.5t22.5 -9.5h960q13 0 22.5 9.5t9.5 22.5v672l-192 192v0zM640 320v-192h-256v192h-192l320 256l320 -256h-192v0zM155 768l64 64h586l64 -64h-714v0z" />
    <glyph glyph-name="uniE960" unicode="download" 
d="M512 384l256 256h-192v256h-128v-256h-192zM745 489l-72 -72l260 -97l-421 -157l-421 157l260 97l-72 72l-279 -105v-256l512 -192l512 192v256z" />
    <glyph glyph-name="uniE961" unicode="load" 
d="M448 384h128v256h192l-256 256l-256 -256h192v-256zM640 528v-99l293 -109l-421 -157l-421 157l293 109v99l-384 -144v-256l512 -192l512 192v256z" />
    <glyph glyph-name="uniE962" unicode="floppy&#x2d;disk" 
d="M896 960h-896v-1024h1024v896l-128 128v0zM512 832h128v-256h-128v256v0zM896 64h-768v768h64v-320h576v320h75l53 -53v-715v0z" />
    <glyph glyph-name="uniE963" unicode="drive" 
d="M192 64h640q80 0 136 56t56 136h-1024q0 -80 56 -136t136 -56v0zM832 192h64v-64h-64v64v0zM960 832h-896l-64 -512h1024z" />
    <glyph glyph-name="uniE964" unicode="db" 
d="M512 960q-106 0 -199.5 -12.5t-163 -34.5t-109.5 -51t-40 -62v-128q0 -33 40 -62t109.5 -51t163 -34.5t199.5 -12.5t199.5 12.5t163 34.5t109.5 51t40 62v128q0 33 -40 62t-109.5 51t-163 34.5t-199.5 12.5v0zM512 416q-106 0 -199.5 12.5t-163 34.5t-109.5 51t-40 62
v-192q0 -33 40 -62t109.5 -51t163 -34.5t199.5 -12.5t199.5 12.5t163 34.5t109.5 51t40 62v192q0 -33 -40 -62t-109.5 -51t-163 -34.5t-199.5 -12.5v0zM512 128q-106 0 -199.5 12.5t-163 34.5t-109.5 51t-40 62v-192q0 -33 40 -62t109.5 -51t163 -34.5t199.5 -12.5
t199.5 12.5t163 34.5t109.5 51t40 62v192q0 -33 -40 -62t-109.5 -51t-163 -34.5t-199.5 -12.5v0z" />
    <glyph glyph-name="uniE965" unicode="ccw" 
d="M512 896q-53 0 -103 -10.5t-96 -30t-87 -47t-76 -62.5l-150 150v-384h384l-144 144q53 52 122.5 82t149.5 30t149.5 -30t122 -82.5t82.5 -122t30 -149.5q0 -43 -9 -83.5t-26 -77t-41 -69t-54 -58.5l85 -96q40 35 72 78t54.5 92t34.5 103t12 111q0 106 -40 199.5
t-109.5 163t-163 109.5t-199.5 40v0z" />
    <glyph glyph-name="uniE966" unicode="cw" 
d="M0 384q0 -57 12 -111t34.5 -103t54.5 -92t72 -78l85 96q-30 26 -54 58.5t-41 69t-26 77t-9 83.5q0 80 30 149.5t82.5 122t122 82.5t149.5 30t149.5 -30t122.5 -82l-144 -144h384v384l-150 -150q-35 35 -76 62.5t-87 47t-96 30t-103 10.5q-106 0 -199.5 -40t-163 -109.5
t-109.5 -163t-40 -199.5v0z" />
    <glyph glyph-name="uniE967" unicode="left" 
d="M762 -64q43 77 62 168t-9 168t-113.5 127.5t-253.5 46.5v-254l-384 384l384 384v-248q201 5 314.5 -73t148.5 -196t-4.5 -255.5t-144.5 -251.5v0z" />
    <glyph glyph-name="uniE968" unicode="right" 
d="M576 712v248l384 -384l-384 -384v254q-168 4 -253.5 -46.5t-113.5 -127.5t-9 -168t62 -168q-105 114 -144.5 251.5t-4.5 255.5t148.5 196t314.5 73v0z" />
    <glyph glyph-name="uniE969" unicode="forward" 
d="M262 960q-43 -77 -62 -168t9 -168t113.5 -127.5t253.5 -46.5v254l384 -384l-384 -384v248q-201 -5 -314.5 73t-148.5 196t4.5 255.5t144.5 251.5v0z" />
    <glyph glyph-name="uniE96A" unicode="left&#x32;" 
d="M448 184v-248l-384 384l384 384v-254q168 -4 253.5 46.5t113.5 127.5t9 168t-62 168q105 -114 144.5 -251.5t4.5 -255.5t-148.5 -196t-314.5 -73v0z" />
    <glyph glyph-name="uniE96B" unicode="bubble" 
d="M512 896q106 0 199.5 -32.5t163 -89t109.5 -132.5t40 -162t-40 -162t-109.5 -132.5t-163 -89t-199.5 -32.5q-20 0 -40 1.5t-40 3.5q-41 -41 -86 -66.5t-91.5 -40t-94.5 -19.5t-96 -7v27q51 26 89.5 69.5t38.5 95.5q0 7 -0.5 14.5t-1.5 14.5q-44 28 -79 64t-59.5 77
t-38 87t-13.5 95q0 86 40 162t109.5 132.5t163 89t199.5 32.5v0z" />
    <glyph glyph-name="uniE96C" unicode="bubbles" horiz-adv-x="1152" 
d="M1088 59q0 -34 18 -62t46 -42v-16l-16 -2t-16 -1q-52 0 -96.5 20t-76.5 55q-20 -5 -40.5 -8t-42.5 -3q-60 0 -112.5 20t-91.5 55t-61.5 81.5t-22.5 99.5t22.5 99.5t61.5 81.5t91.5 55t112.5 20t112.5 -20t91.5 -55t61.5 -81.5t22.5 -99.5q0 -42 -14 -79.5t-39 -68.5
q-5 -12 -8 -24t-3 -25v0zM512 960q104 0 196.5 -31.5t161.5 -86.5t110 -129t44 -159q-37 17 -77.5 25.5t-82.5 8.5q-72 0 -137.5 -24.5t-116.5 -69.5q-53 -47 -81.5 -108.5t-28.5 -129.5q0 -34 7 -66t21 -62h-8h-8q-20 0 -40 1.5t-40 3.5q-41 -41 -86 -66.5t-91.5 -40
t-94.5 -19.5t-96 -7v27q51 26 89.5 69.5t38.5 95.5q0 7 -0.5 14.5t-1.5 14.5q-44 28 -79 64t-59.5 77t-38 87t-13.5 95q0 86 40 162t109.5 132.5t163 89t199.5 32.5v0z" />
    <glyph glyph-name="uniE96D" unicode="bubbles&#x32;" horiz-adv-x="1152" 
d="M480 960v0q99 0 186.5 -30.5t153 -83t103 -123.5t37.5 -151q0 -81 -37.5 -151.5t-103 -123.5t-153 -83.5t-186.5 -30.5q-19 0 -38 1t-37 4q-38 -39 -79.5 -62.5t-85 -37t-87.5 -18.5t-89 -6v25q48 24 82 64.5t34 89.5q0 7 -0.5 13.5t-1.5 13.5q-41 26 -74 59.5t-56 72
t-35.5 81.5t-12.5 89q0 80 37.5 151t103 123.5t153 83t186.5 30.5v0zM996 89q0 -42 25 -76.5t67 -54.5v-22q-77 2 -148.5 21t-138.5 85q-16 -2 -32 -3t-33 -1q-72 0 -136.5 18.5t-117.5 50.5q55 0 107 9t101 25.5t93.5 40.5t83.5 56q39 31 70 68.5t53 78.5q23 44 34.5 91
t11.5 96q0 7 -0.5 15t-0.5 16q54 -45 85.5 -104.5t31.5 -127.5q0 -78 -42 -145.5t-112 -113.5q-1 -5 -1.5 -11t-0.5 -12v0z" />
    <glyph glyph-name="uniE96E" unicode="bubble&#x32;" 
d="M512 768q-41 0 -80.5 -6.5t-77.5 -19.5q-35 -12 -66 -29t-57 -38q-50 -41 -76.5 -91t-26.5 -104q0 -30 8.5 -59.5t24.5 -56.5q17 -29 42.5 -54.5t56.5 -45.5q23 -15 37.5 -38t18.5 -50q2 -9 2.5 -18t1.5 -18q5 4 10.5 9l11.5 11q18 18 41.5 27.5t48.5 9.5h8t8 -1
q16 -2 32 -3t32 -1q41 0 80.5 6.5t77.5 19.5q35 12 66 29t57 38q50 41 76.5 91t26.5 104t-26.5 104t-76.5 91q-26 21 -57 38t-66 29q-38 13 -77.5 19.5t-80.5 6.5v0zM512 896v0q106 0 199.5 -32.5t163 -89t109.5 -132.5t40 -162t-40 -162t-109.5 -132.5t-163 -89
t-199.5 -32.5q-20 0 -40 1.5t-40 3.5q-41 -41 -86 -66.5t-91.5 -40t-94.5 -19.5t-96 -7v27q51 26 89.5 69.5t38.5 95.5q0 7 -0.5 14.5t-1.5 14.5q-44 28 -79 64t-59.5 77t-38 87t-13.5 95q0 86 40 162t109.5 132.5t163 89t199.5 32.5v0z" />
    <glyph glyph-name="uniE96F" unicode="bubbles&#x33;" horiz-adv-x="1152" 
d="M1088 59q0 -34 18 -62t46 -42v-16l-16 -2t-16 -1q-52 0 -96.5 20t-76.5 55q-20 -5 -40.5 -8t-42.5 -3q-60 0 -112.5 20t-91.5 55t-61.5 81.5t-22.5 99.5t22.5 99.5t61.5 81.5t91.5 55t112.5 20t112.5 -20t91.5 -55t61.5 -81.5t22.5 -99.5q0 -42 -14 -79.5t-39 -68.5
q-5 -12 -8 -24t-3 -25v0zM231 739q-50 -41 -76.5 -91t-26.5 -104q0 -30 8.5 -59.5t24.5 -56.5q17 -29 42.5 -54.5t56.5 -45.5q23 -15 37.5 -38t18.5 -50q2 -9 2.5 -18t1.5 -18q5 4 10.5 9l11.5 11q18 18 41.5 27.5t48.5 9.5h8t8 -1q16 -2 32 -3t32 -1v-128q-20 0 -40 1.5
t-40 3.5q-41 -41 -86 -66.5t-91.5 -40t-94.5 -19.5t-96 -7v27q51 26 89.5 69.5t38.5 95.5q0 7 -0.5 14.5t-1.5 14.5q-44 28 -79 64t-59.5 77t-38 87t-13.5 95q0 86 40 162t109.5 132.5t163 89t199.5 32.5q104 0 196.5 -31.5t161.5 -86.5t110 -129t44 -159q-31 14 -64.5 22.5
t-67.5 10.5q-9 42 -34 81t-65 71q-26 21 -57 38t-66 29q-38 13 -77.5 19.5t-80.5 6.5t-80.5 -6.5t-77.5 -19.5q-35 -12 -66 -29t-57 -38v0z" />
    <glyph glyph-name="uniE970" unicode="bubbles&#x34;" horiz-adv-x="1152" 
d="M480 832q-38 0 -74.5 -6t-70.5 -18q-33 -11 -61.5 -26.5t-52.5 -34.5q-45 -37 -69 -82t-24 -93q0 -27 7.5 -53.5t22.5 -50.5q15 -26 38 -49t52 -42q23 -15 37.5 -38t19.5 -50q0 -5 0.5 -9.5t1.5 -8.5q2 2 4 3.5t4 4.5q18 18 41.5 27.5t48.5 9.5q4 0 8 -0.5t8 -0.5
q15 -2 29.5 -3t29.5 -1q38 0 74.5 6t70.5 18q33 11 61.5 26.5t52.5 34.5q45 37 69 82t24 94q0 48 -24 93t-69 82q-24 19 -52.5 34.5t-61.5 26.5q-34 12 -70.5 18t-74.5 6v0zM480 960v0q99 0 186.5 -30.5t153 -83t103 -123.5t37.5 -151q0 -81 -37.5 -151.5t-103 -123.5
t-153 -83.5t-186.5 -30.5q-19 0 -38 1t-37 4q-38 -39 -79.5 -62.5t-85 -37t-87.5 -18.5t-89 -6v25q48 24 82 64.5t34 89.5q0 7 -0.5 13.5t-1.5 13.5q-41 26 -74 59.5t-56 72t-35.5 81.5t-12.5 89q0 80 37.5 151t103 123.5t153 83t186.5 30.5v0zM996 89q0 -42 25 -76.5
t67 -54.5v-22q-77 2 -148.5 21t-138.5 85q-16 -2 -32 -3t-33 -1q-72 0 -136.5 18.5t-117.5 50.5q55 0 107 9t101 25.5t93.5 40.5t83.5 56q39 31 70 68.5t53 78.5q23 44 34.5 91t11.5 96q0 7 -0.5 15t-0.5 16q54 -45 85.5 -104.5t31.5 -127.5q0 -78 -42 -145.5t-112 -113.5
q-1 -5 -1.5 -11t-0.5 -12v0z" />
    <glyph glyph-name="uniE971" unicode="profile&#x32;" 
d="M576 253v53q53 30 90.5 97t37.5 141q0 60 -3 112.5t-21 91.5t-57 61.5t-111 22.5t-111 -22.5t-57 -61.5t-21 -91.5t-3 -112.5q0 -74 37.5 -141t90.5 -97v-53q-81 -6 -151.5 -28.5t-122 -56t-81 -77t-29.5 -91.5h896q0 48 -29.5 91.5t-81 77t-122 56t-151.5 28.5v0z" />
    <glyph glyph-name="uniE972" unicode="group" horiz-adv-x="1152" 
d="M768 189v53q53 30 90.5 97t37.5 141q0 60 -3 112.5t-21 91.5t-57 61.5t-111 22.5t-111 -22.5t-57 -61.5t-21 -91.5t-3 -112.5q0 -74 37.5 -141t90.5 -97v-53q-81 -6 -151.5 -28.5t-122 -56t-81 -77t-29.5 -91.5h896q0 48 -29.5 91.5t-81 77t-122 56t-151.5 28.5v0z
M327 165q42 27 92.5 47.5t107.5 32.5q-11 13 -21.5 28t-19.5 31q-22 42 -34 86.5t-12 89.5q0 65 4 124.5t27 109.5q22 48 62 78t97 41q-13 58 -52.5 92.5t-129.5 34.5q-72 0 -111 -22.5t-57 -61.5t-21 -91.5t-3 -112.5q0 -74 37.5 -141t90.5 -97v-53q-81 -6 -151.5 -28.5
t-122 -56t-81 -77t-29.5 -91.5h279q11 10 23 19l25 18v0z" />
    <glyph glyph-name="uniE973" unicode="user&#x32;" 
d="M384 224q0 57 17 108.5t47.5 94.5t73 76t92.5 51q12 28 19 58t7 60q0 60 -3 112.5t-21 91.5t-57 61.5t-111 22.5t-111 -22.5t-57 -61.5t-21 -91.5t-3 -112.5q0 -74 37.5 -141t90.5 -97v-53q-81 -6 -151.5 -28.5t-122 -56t-81 -77t-29.5 -91.5h397q-6 23 -9.5 47t-3.5 49
v0zM736 512q-60 0 -112.5 -22.5t-91.5 -61.5t-61.5 -91.5t-22.5 -112.5t22.5 -112.5t61.5 -91.5t91.5 -61.5t112.5 -22.5t112.5 22.5t91.5 61.5t61.5 91.5t22.5 112.5t-22.5 112.5t-61.5 91.5t-91.5 61.5t-112.5 22.5v0zM896 192h-128v-128h-64v128h-128v64h128v128h64v-128
h128v-64v0z" />
    <glyph glyph-name="uniE974" unicode="user&#x33;" 
d="M384 224q0 57 17 108.5t47.5 94.5t73 76t92.5 51q12 28 19 58t7 60q0 60 -3 112.5t-21 91.5t-57 61.5t-111 22.5t-111 -22.5t-57 -61.5t-21 -91.5t-3 -112.5q0 -74 37.5 -141t90.5 -97v-53q-81 -6 -151.5 -28.5t-122 -56t-81 -77t-29.5 -91.5h397q-6 23 -9.5 47t-3.5 49
v0zM736 512q-60 0 -112.5 -22.5t-91.5 -61.5t-61.5 -91.5t-22.5 -112.5t22.5 -112.5t61.5 -91.5t91.5 -61.5t112.5 -22.5t112.5 22.5t91.5 61.5t61.5 91.5t22.5 112.5t-22.5 112.5t-61.5 91.5t-91.5 61.5t-112.5 22.5v0zM896 192h-320v64h320v-64v0z" />
    <glyph glyph-name="uniE975" unicode="user&#x34;" 
d="M960 352l-288 -288l-96 96l-64 -64l160 -160l352 352zM448 192h320v115q-50 30 -115.5 49t-140.5 25v53q53 30 90.5 97t37.5 141q0 60 -3 112.5t-21 91.5t-57 61.5t-111 22.5t-111 -22.5t-57 -61.5t-21 -91.5t-3 -112.5q0 -74 37.5 -141t90.5 -97v-53
q-81 -6 -151.5 -28.5t-122 -56t-81 -77t-29.5 -91.5h448v64v0z" />
    <glyph glyph-name="uniE976" unicode="user&#x35;" 
d="M320 768q0 80 56 136t136 56t136 -56t56 -136t-56 -136t-136 -56t-136 56t-56 136v0zM768 512h-35l-199 -404l74 372l-96 96l-96 -96l74 -372l-199 404h-35q-96 0 -112 -56t-16 -136v-320h768v320q0 80 -16 136t-112 56v0z" />
    <glyph glyph-name="uniE977" unicode="ldquo" 
d="M225 512q46 0 87 -17.5t71.5 -48t48 -71.5t17.5 -87t-17.5 -87t-48 -71.5t-71.5 -48t-87 -17.5t-87 17.5t-71.5 48t-48 71.5t-17.5 87l-1 32q0 93 35 174.5t96 142.5t142.5 96t174.5 35v-128q-64 0 -122.5 -24t-103.5 -70q-9 -8 -17 -17.5t-15 -19.5q8 2 17 2.5t18 0.5v0
zM801 512q46 0 87 -17.5t71.5 -48t48 -71.5t17.5 -87t-17.5 -87t-48 -71.5t-71.5 -48t-87 -17.5t-87 17.5t-71.5 48t-48 71.5t-17.5 87l-1 32q0 93 35 174.5t96 142.5t142.5 96t174.5 35v-128q-64 0 -122.5 -24t-103.5 -70q-9 -8 -17 -17.5t-15 -19.5q8 2 17 2.5t18 0.5v0z
" />
    <glyph glyph-name="uniE978" unicode="quotes&#x2d;right" 
d="M800 320q-46 0 -87 17.5t-71.5 48t-48 71.5t-17.5 87t17.5 87t48 71.5t71.5 48t87 17.5t87 -17.5t71.5 -48t48 -71.5t17.5 -87l1 -32q0 -93 -35 -174.5t-96 -142.5t-142.5 -96t-174.5 -35v128q64 0 122.5 24t103.5 70q9 8 17 17.5t15 19.5q-8 -2 -17 -2.5t-18 -0.5v0z
M224 320q-46 0 -87 17.5t-71.5 48t-48 71.5t-17.5 87t17.5 87t48 71.5t71.5 48t87 17.5t87 -17.5t71.5 -48t48 -71.5t17.5 -87l1 -32q0 -93 -35 -174.5t-96 -142.5t-142.5 -96t-174.5 -35v128q64 0 122.5 24t103.5 70q9 8 17 17.5t15 19.5q-8 -2 -17 -2.5t-18 -0.5v0z" />
    <glyph glyph-name="uniE979" unicode="hour&#x2d;glass" 
d="M729 448q52 33 94.5 80t73 104.5t47 124.5t16.5 139q0 16 -1 32l-2 32h-890l-2 -32t-1 -32q0 -72 16.5 -139t47 -124.5t73 -104.5t94.5 -80q-52 -33 -94.5 -80t-73 -104.5t-47 -124.5t-16.5 -139q0 -16 1 -32l2 -32h890l2 32t1 32q0 72 -16.5 139t-47 124.5t-73 104.5
t-94.5 80v0zM160 0q0 70 15 133.5t43.5 115.5t70 90.5t95.5 58.5v100q-54 20 -95.5 58.5t-70 90.5t-43.5 115.5t-15 133.5v0h704q0 -70 -15 -133.5t-43.5 -115.5t-70 -90.5t-95.5 -58.5v-100q54 -20 95.5 -58.5t70 -90.5t43.5 -115.5t15 -133.5h-704v0zM620 290
q-54 31 -65 66.5t-11 59.5v64q0 24 11 59.5t65 66.5q29 16 53.5 41.5t43.5 56.5h-410q19 -32 43.5 -57t53.5 -41q54 -31 65 -66.5t11 -59.5v-64q0 -24 -11 -59.5t-65 -66.5t-92.5 -91t-50.5 -135h502q-12 76 -50.5 135.5t-92.5 90.5v0z" />
    <glyph glyph-name="uniE97A" unicode="loading&#x32;" 
d="M384 832q0 53 37.5 90.5t90.5 37.5t90.5 -37.5t37.5 -90.5t-37.5 -90.5t-90.5 -37.5t-90.5 37.5t-37.5 90.5v0zM656 720q0 53 37.5 90.5t90.5 37.5t90.5 -37.5t37.5 -90.5t-37.5 -90.5t-90.5 -37.5t-90.5 37.5t-37.5 90.5v0zM832 448q0 27 18.5 45.5t45.5 18.5
t45.5 -18.5t18.5 -45.5t-18.5 -45.5t-45.5 -18.5t-45.5 18.5t-18.5 45.5v0zM720 176q0 27 18.5 45.5t45.5 18.5q26 0 45 -18.5t19 -45.5q0 -26 -19 -45t-45 -19q-27 0 -45.5 19t-18.5 45v0zM448 64v0v0q0 27 18.5 45.5t45.5 18.5t45.5 -18.5t18.5 -45.5v0v0
q0 -27 -18.5 -45.5t-45.5 -18.5t-45.5 18.5t-18.5 45.5v0zM176 176v0v0q0 27 19 45.5t45 18.5q27 0 45.5 -18.5t18.5 -45.5v0v0q0 -26 -18.5 -45t-45.5 -19q-26 0 -45 19t-19 45v0zM144 720v0v0q0 39 28.5 67.5t67.5 28.5q40 0 68 -28.5t28 -67.5v0v0q0 -40 -28 -68t-68 -28
q-39 0 -67.5 28t-28.5 68v0zM56 448q0 30 21 51t51 21t51 -21t21 -51t-21 -51t-51 -21t-51 21t-21 51v0z" />
    <glyph glyph-name="uniE97B" unicode="loading&#x33;" 
d="M1024 448q-1 50 -11.5 99.5t-31.5 94.5q-20 46 -48.5 87t-64.5 75q-35 35 -77 61.5t-88 44.5q-45 18 -93.5 26.5t-97.5 7.5t-96.5 -11.5t-91.5 -29.5q-45 -20 -84.5 -47.5t-72.5 -62.5q-33 -34 -59 -74.5t-43 -85.5q-18 -44 -26 -91t-7 -94t11 -93t29 -89t46 -81.5
t60 -70.5q34 -32 73 -57t82 -41q43 -17 88 -25t91 -7t90.5 11t85.5 28t78.5 44t67.5 59q31 32 55.5 70t40.5 79q9 25 16 51t10 53h2h2q27 0 45.5 18.5t18.5 45.5v2.5v2.5v0v0zM922 278q-17 -40 -42.5 -75.5t-56.5 -65.5t-67.5 -53t-76.5 -39q-40 -15 -82.5 -22.5t-84.5 -6.5
t-83.5 10t-80.5 26q-38 17 -72.5 41.5t-63.5 54.5t-51 65.5t-37 73.5q-15 39 -22 79.5t-6 81.5t10 81t25 77q17 37 40 70t52 61q30 27 63.5 48.5t70.5 35.5q37 15 76.5 21.5t78.5 5.5t77.5 -9.5t74.5 -24.5q35 -16 67 -38.5t58 -50.5q27 -28 47.5 -60.5t34.5 -68.5
q13 -35 19.5 -72.5t5.5 -75.5v0v-2.5v-2.5q0 -25 16.5 -43t40.5 -21q-5 -26 -12.5 -51.5t-18.5 -49.5v0z" />
    <glyph glyph-name="uniE97C" unicode="loading&#x34;" 
d="M512 657q-25 0 -42.5 17.5t-17.5 42.5v179q0 24 17.5 41.5t42.5 17.5t42.5 -17.5t17.5 -41.5v-179q0 -25 -17.5 -42.5t-42.5 -17.5v0zM512 -37q-15 0 -26 11t-11 26v179q0 16 11 27t26 11t26 -11t11 -27v-179q0 -15 -11 -26t-26 -11v0zM378 625q-15 0 -28 7t-21 21
l-89 155q-12 20 -6 42.5t26 33.5q20 12 42.5 6t34.5 -26l89 -155q12 -20 6 -42.5t-26 -34.5q-7 -4 -14 -5.5t-14 -1.5v0zM736 27q-9 0 -17 4t-12 13l-90 155q-7 12 -3.5 25.5t16.5 19.5q12 7 25 3.5t20 -15.5l90 -155q7 -12 3.5 -25.5t-15.5 -20.5q-4 -2 -8.5 -3t-8.5 -1v0z
M279 530q-6 0 -13 2t-13 5l-155 90q-19 10 -24.5 31t5.5 40t32 24.5t39 -5.5l156 -89q18 -11 23.5 -32t-4.5 -40q-8 -12 -20 -19t-26 -7v0zM900 194q-4 0 -8 1t-7 3l-155 90q-11 6 -14 18t3 23q6 10 18 13.5t23 -2.5l155 -90q10 -6 13.5 -18t-2.5 -23q-5 -7 -12 -11t-14 -4
v0zM243 400h-179q-20 0 -34 14t-14 34t14 34t34 14h179q20 0 34.5 -14t14.5 -34t-14.5 -34t-34.5 -14v0zM960 418v0v0h-179q-13 0 -21.5 9t-8.5 21t8.5 21t21.5 9v0v0h179q12 0 20.5 -9t8.5 -21t-8.5 -21t-20.5 -9v0zM124 179q-11 0 -21.5 6t-16.5 17q-10 16 -5 34t21 27
l155 89q16 10 34 5t27 -21t4.5 -34t-20.5 -27l-155 -90q-6 -3 -11.5 -4.5t-11.5 -1.5v0zM745 552q-8 0 -15 4t-11 11q-6 11 -3 23t14 18l155 90q10 6 22 2.5t19 -13.5q6 -11 2.5 -23t-13.5 -18l-155 -90q-4 -2 -8 -3t-7 -1v0zM288 19q-5 0 -10 1.5t-10 4.5q-15 8 -19.5 24.5
t4.5 31.5l89 155q9 15 25 19t31 -4q15 -9 19.5 -25t-4.5 -31l-89 -155q-6 -10 -15.5 -15.5t-20.5 -5.5v0zM646 651q-4 0 -7.5 1t-7.5 3q-10 6 -13.5 18t2.5 23l90 155q6 10 18 13.5t23 -2.5q10 -7 13.5 -19t-2.5 -22l-90 -155q-4 -7 -11 -11t-15 -4v0z" />
    <glyph glyph-name="uniE97D" unicode="loading&#x35;" 
d="M192 448q0 9 0.5 18t1.5 18l-185 60q-4 -23 -6.5 -47t-2.5 -49q0 -55 11.5 -107t32.5 -99.5t50.5 -89.5t67.5 -77l114 157q-39 43 -61.5 98.5t-22.5 117.5v0zM832 448q0 -62 -22.5 -117.5t-61.5 -98.5l114 -157q38 35 67.5 77t50.5 89.5t32.5 99.5t11.5 107q0 25 -2.5 49
t-6.5 47l-185 -60q1 -9 1.5 -18t0.5 -18v0zM576 762q69 -14 125 -55.5t89 -100.5l185 60q-27 58 -68 107.5t-92.5 87.5t-112 62.5t-126.5 32.5v-194v0zM234 606q33 59 89 100.5t125 55.5v194q-66 -8 -126.5 -32.5t-112 -62.5t-92.5 -87.5t-68 -107.5l185 -60v0zM645 157
q-31 -14 -64.5 -21.5t-68.5 -7.5t-68.5 7.5t-64.5 21.5l-114 -158q55 -30 117.5 -46.5t129.5 -16.5t129.5 16.5t117.5 46.5l-114 158v0z" />
    <glyph glyph-name="uniE97E" unicode="loading&#x36;" 
d="M512 960q-106 0 -199.5 -40t-163 -109.5t-109.5 -163t-40 -199.5t40 -199.5t109.5 -163t163 -109.5t199.5 -40t199.5 40t163 109.5t109.5 163t40 199.5t-40 199.5t-109.5 163t-163 109.5t-199.5 40v0zM512 704q53 0 99.5 -20t81.5 -55t55 -81.5t20 -99.5t-20 -99.5
t-55 -81.5t-81.5 -55t-99.5 -20t-99.5 20t-81.5 55t-55 81.5t-20 99.5t20 99.5t55 81.5t81.5 55t99.5 20v0zM817 143q-30 -31 -65.5 -54.5t-74 -39.5t-80.5 -24.5t-85 -8.5t-85 8.5t-80.5 24.5t-74 39.5t-65.5 54.5q-31 30 -54.5 65.5t-39.5 74t-24.5 80.5t-8.5 85t8.5 85
t24.5 80.5t39.5 74t54.5 65.5l67 -67v0v0q-49 -50 -73.5 -111.5t-24.5 -126.5t24.5 -126.5t73.5 -111.5q48 -47 109.5 -72.5t128.5 -25.5t128.5 25.5t109.5 72.5q49 50 73.5 111.5t24.5 126.5t-24.5 126.5t-73.5 111.5l67 67q31 -30 54.5 -65.5t39.5 -74t24.5 -80.5t8.5 -85
t-8.5 -85t-24.5 -80.5t-39.5 -74t-54.5 -65.5v0z" />
    <glyph glyph-name="uniE97F" unicode="loading&#x37;" 
d="M384 832q0 53 37.5 90.5t90.5 37.5t90.5 -37.5t37.5 -90.5t-37.5 -90.5t-90.5 -37.5t-90.5 37.5t-37.5 90.5v0zM791 448v0v0q0 43 31 74t74 31t74 -31t31 -74v0v0q0 -43 -31 -74t-74 -31t-74 31t-31 74v0zM688 176q0 40 28 68t68 28q39 0 67 -28t28 -68q0 -39 -28 -67
t-67 -28q-40 0 -68 28t-28 67v0zM426 64q0 36 25 61t61 25t61 -25t25 -61t-25 -61t-61 -25t-61 25t-25 61v0zM162 176q0 33 23 55.5t55 22.5q33 0 55.5 -22.5t22.5 -55.5q0 -32 -22.5 -55t-55.5 -23q-32 0 -55 23t-23 55v0zM57 448q0 29 21 50t50 21t50 -21t21 -50t-21 -50
t-50 -21t-50 21t-21 50v0zM176 720v0v0q0 26 19 45t45 19q27 0 45.5 -19t18.5 -45v0v0q0 -27 -18.5 -45.5t-45.5 -18.5q-26 0 -45 18.5t-19 45.5v0zM899 720q0 -48 -33.5 -82t-81.5 -34t-82 34t-34 82t34 81.5t82 33.5t81.5 -33.5t33.5 -81.5v0z" />
    <glyph glyph-name="uniE980" unicode="loading&#x38;" 
d="M416 32q0 40 28 68t68 28t68 -28t28 -68t-28 -68t-68 -28t-68 28t-28 68v0zM0 448q0 40 28 68t68 28t68 -28t28 -68t-28 -68t-68 -28t-68 28t-28 68v0zM832 448q0 40 28 68t68 28t68 -28t28 -68t-28 -68t-68 -28t-68 28t-28 68v0zM122 742q0 40 28 68t68 28t68 -28
t28 -68t-28 -68t-68 -28t-68 28t-28 68v0zM710 154q0 40 28 68t68 28t68 -28t28 -68t-28 -68t-68 -28t-68 28t-28 68v0zM122 154q0 40 28 68t68 28t68 -28t28 -68t-28 -68t-68 -28t-68 28t-28 68v0zM710 742q0 40 28 68t68 28t68 -28t28 -68t-28 -68t-68 -28t-68 28t-28 68
v0z" />
    <glyph glyph-name="uniE981" unicode="loading&#x39;" 
d="M512 -64q-51 0 -100.5 10t-95.5 29t-88 47t-78 64t-64 78t-47 88t-29 95.5t-10 100.5q0 73 20 142.5t59 130.5q37 59 89 106.5t115 78.5l43 -86q-51 -25 -93.5 -63.5t-72.5 -87.5q-31 -49 -47.5 -105.5t-16.5 -115.5q0 -86 32.5 -162t89 -132.5t132.5 -89t162 -32.5
t162 32.5t132.5 89t89 132.5t32.5 162q0 59 -16.5 115.5t-47.5 105.5q-30 49 -72.5 87.5t-93.5 63.5l43 86q63 -31 115 -78.5t89 -106.5q39 -61 59 -130.5t20 -142.5q0 -51 -10 -100.5t-29 -95.5t-47 -88t-64 -78t-78 -64t-88 -47t-95.5 -29t-100.5 -10v0z" />
    <glyph glyph-name="uniE982" unicode="loading&#x31;&#x30;" 
d="M512 960q-105 0 -197 -39t-161 -107t-110 -159t-44 -195q2 91 35.5 170.5t90 138.5t131 93t159.5 34q86 0 162 -35t132.5 -96t89 -142.5t32.5 -174.5q0 -40 28 -68t68 -28t68 28t28 68q0 106 -40 199.5t-109.5 163t-163 109.5t-199.5 40v0zM512 -64q105 0 197 39t161 107
t110 159t44 195q-2 -91 -35.5 -170.5t-90 -138.5t-131 -93t-159.5 -34q-86 0 -162 35t-132.5 96t-89 142.5t-32.5 174.5q0 40 -28 68t-68 28t-68 -28t-28 -68q0 -106 40 -199.5t109.5 -163t163 -109.5t199.5 -40v0z" />
    <glyph glyph-name="uniE983" unicode="loading&#x31;&#x31;" 
d="M0 446v0v0v0q0 -3 0.5 -5.5t0.5 -5.5q1 -2 1 -3v-3q0 -1 0.5 -2.5t0.5 -3.5t0.5 -4t0.5 -4q1 -5 1.5 -9.5t1.5 -9.5l2 -10t2 -11q1 -3 1.5 -6t1.5 -5q1 -3 1.5 -6t1.5 -6q1 -2 1 -3.5t1 -3.5q0 -1 0.5 -2.5t1.5 -3.5q1 -3 2 -6.5t2 -6.5q0 -1 0.5 -1.5t0.5 -1.5t0.5 -2
t0.5 -2q1 -1 1.5 -3t1.5 -3q1 -4 2.5 -7.5t2.5 -6.5t2.5 -6.5t3.5 -7.5q1 -2 1.5 -3.5t1.5 -3.5t2 -3.5t1 -3.5q2 -4 4 -7.5t4 -6.5q1 -4 3 -7.5t4 -7.5q1 -2 2 -3.5t2 -3.5t2.5 -3.5t2.5 -3.5q2 -4 4 -7.5t5 -7.5q9 -14 19.5 -28t22.5 -27l24.5 -25.5t26.5 -23.5
q13 -12 27.5 -22l28.5 -20q15 -9 30 -16.5l30 -14.5q3 -1 7 -2.5t8 -3.5q1 0 3 -1l4 -2q2 0 3.5 -1t3.5 -1q4 -2 7.5 -3t7.5 -2q3 -1 7 -2t7 -2q2 -1 3.5 -1.5t3.5 -0.5q2 -1 3.5 -1.5t3.5 -0.5q4 -1 7 -2t7 -1q3 -1 6.5 -1.5t6.5 -1.5q2 0 3.5 -0.5t2.5 -0.5t2 -0.5t2 -0.5
h1h2q3 -1 6 -1.5t6 -0.5q2 0 3 -0.5t3 -0.5h2.5h3.5q3 -1 5.5 -1h5.5q3 -1 5.5 -1h4.5h1v0q1 -26 19.5 -44.5t44.5 -18.5h0.5h1.5v0v0v0q3 0 6 0.5t5 0.5q2 1 3 1h3q1 0 3 0.5t3 0.5q2 0 4 0.5t4 0.5q5 1 9.5 1.5t9.5 1.5l10.5 2l10.5 2q3 1 6 1.5t6 1.5q2 1 5 1.5t7 1.5
q1 1 2.5 1t3.5 1q1 0 2.5 0.5t3.5 1.5q3 1 6.5 2t6.5 2q1 0 2 0.5l1 0.5q1 0 2 0.5t2 0.5q1 1 3 1.5t3 1.5q4 1 7.5 2.5t6.5 2.5q4 1 7.5 2.5t6.5 3.5q2 1 3.5 1.5t3.5 1.5t3.5 2t3.5 1q4 2 7.5 4t7.5 4q3 1 6.5 3t7.5 4q2 1 3.5 2t3.5 2t3.5 2.5t3.5 2.5q4 2 7.5 4t7.5 5
q14 9 28 19.5t27 22.5l25.5 24.5t23.5 26.5q12 13 22 27.5l20 28.5q9 15 16.5 30l14.5 30q1 3 2.5 7t3.5 8q1 1 1.5 3t1.5 4q0 2 1 3.5t1 3.5q2 4 3 7.5t2 7.5q1 3 2.5 7t2.5 7q0 2 0.5 3.5t1.5 3.5q0 2 0.5 3.5t0.5 3.5q1 4 2 7t2 7q0 3 1 6.5t1 6.5q0 2 0.5 3.5t0.5 2.5
q1 1 1 2v2v1v2q1 3 1.5 6t0.5 6q0 2 0.5 3t0.5 3v2.5v3.5q1 3 1 5.5v5.5q1 3 1 5.5v4.5v1.5v0.5q27 0 45.5 19t18.5 45v0.5v1.5v0v0v0q0 3 -0.5 5.5t-0.5 5.5q-1 2 -1 3v3q0 1 -0.5 2.5t-0.5 3.5t-0.5 4t-0.5 4q-1 5 -1.5 9.5t-1.5 9.5l-2 10t-2 11q-1 3 -1.5 6t-1.5 5
q-1 3 -1.5 6t-1.5 6q-1 2 -1 3.5t-1 3.5q0 1 -0.5 2.5t-1.5 3.5q-1 3 -2 6.5t-2 6.5q0 1 -0.5 1.5t-0.5 1.5t-0.5 2t-0.5 2q-1 1 -1.5 3t-1.5 3q-1 4 -2.5 7.5t-2.5 6.5t-2.5 6.5t-3.5 7.5q-1 2 -1.5 3.5t-1.5 3.5t-2 3.5t-1 3.5q-2 4 -4 7.5t-4 6.5q-1 4 -3 7.5t-4 7.5
q-1 2 -2 3.5t-2 3.5t-2.5 3.5t-2.5 3.5q-2 4 -4 7.5t-5 7.5q-9 14 -19.5 28t-22.5 27l-24.5 25.5t-26.5 23.5q-13 12 -27.5 22l-28.5 20q-15 9 -30 16.5l-30 14.5q-3 1 -7 2.5t-8 3.5q-1 0 -3 1l-4 2q-2 0 -3.5 1t-3.5 1q-4 2 -7.5 3t-7.5 2q-3 1 -7 2t-7 2q-2 1 -3.5 1.5
t-3.5 0.5q-2 1 -3.5 1.5t-3.5 0.5q-4 1 -7 2t-7 1q-3 1 -6.5 1.5t-6.5 1.5q-2 0 -3.5 0.5t-2.5 0.5t-2 0.5t-2 0.5h-1h-2q-3 1 -6 1.5t-6 0.5q-2 0 -3 0.5t-3 0.5h-2.5h-3.5q-3 1 -5.5 1h-5.5q-3 1 -5.5 1h-4.5h-1.5h-1.5q0 26 -19 44.5t-45 18.5h-0.5h-1.5v0v0v0
q-3 0 -5.5 -0.5t-5.5 -0.5q-1 -1 -2.5 -1h-3.5q-1 0 -2.5 -0.5t-3.5 -0.5t-4 -0.5t-4 -0.5q-4 -1 -9 -1.5t-10 -1.5l-10 -2t-11 -2q-3 -1 -5.5 -1.5t-5.5 -1.5t-6 -1.5t-6 -1.5q-2 -1 -3.5 -1t-3.5 -1q-1 0 -2.5 -0.5t-3.5 -1.5q-3 -1 -6.5 -2t-6.5 -2q-1 0 -1.5 -0.5
t-1.5 -0.5t-2 -0.5t-2 -0.5q-1 -1 -3 -1.5t-3 -1.5q-4 -1 -7 -2.5t-7 -2.5q-3 -1 -6.5 -2.5t-7.5 -3.5q-2 -1 -3.5 -1.5t-3.5 -1.5t-3.5 -2t-3.5 -1q-4 -2 -7.5 -4t-6.5 -4q-4 -1 -7.5 -3t-7.5 -4q-2 -1 -3.5 -2t-3.5 -2t-3.5 -2.5t-3.5 -2.5q-4 -2 -7.5 -4t-6.5 -5
q-15 -9 -28.5 -19.5l-27.5 -22.5l-25.5 -24.5t-23.5 -26.5q-12 -13 -22 -27.5l-19 -28.5q-9 -15 -17 -30t-15 -30q-1 -3 -2.5 -7t-3.5 -8q0 -1 -1 -3l-2 -4q0 -2 -1 -3.5t-1 -3.5q-1 -4 -2.5 -7.5t-2.5 -7.5q-1 -3 -2 -7t-2 -7q-1 -2 -1.5 -3.5t-0.5 -3.5q-1 -2 -1.5 -3.5
t-0.5 -3.5q-1 -4 -2 -7t-1 -7q-1 -3 -1.5 -6.5t-1.5 -6.5q0 -2 -0.5 -3.5t-0.5 -2.5t-0.5 -2t-0.5 -2v-1v-2q-1 -3 -1.5 -6t-0.5 -6q0 -2 -0.5 -3t-0.5 -3v-2.5v-3.5q-1 -3 -1 -5.5v-5.5q-1 -3 -1 -5.5v-4.5v-1.5v-0.5q-26 -1 -44 -19.5t-18 -44.5v-0.5v-1.5v0zM74 511v0.5
v0.5q0 2 1 4.5t1 5.5q1 2 1.5 5t1.5 5q0 2 0.5 3l1.5 3q0 1 0.5 2.5t0.5 2.5l2 6t2 5q0 1 0.5 2l0.5 1q0 1 0.5 1.5t0.5 1.5q1 2 1.5 3.5t1.5 2.5l2 6l2 6t2.5 6t3.5 6q0 2 1 3.5t1 2.5q1 2 2 3.5t1 2.5q2 3 3.5 6.5t3.5 6.5q1 3 3 6l4 6q1 2 1.5 3.5t1.5 2.5q1 2 2 3.5
t2 3.5l4 6l4 6q8 12 17.5 24l19.5 24l22 21.5t23 20.5t24.5 18.5t25.5 16.5q12 8 25 14.5t26 11.5q4 2 7 3l6 2q2 1 3.5 1.5t3.5 1.5q1 0 2.5 1t3.5 1l6 2t7 2l6 2l6 2q2 0 3.5 0.5t2.5 0.5q2 1 3.5 1t2.5 1q3 0 6 1t6 1q3 1 5.5 1.5t5.5 0.5q2 1 3 1h3q1 1 1.5 1h1.5h1h1
q3 1 5.5 1t5.5 1h2.5h2.5h2.5t2.5 1h4.5h5.5q2 0 4 0.5t5 0.5h8h8h7h6h2.5h2.5q2 -1 3.5 -1h2.5h3.5h2.5q3 -1 5.5 -1h4.5h0.5h0.5h1v0v0q23 1 40.5 16t20.5 38h1l1 -1q2 0 4.5 -0.5t5.5 -1.5q2 -1 5 -1.5t5 -1.5q2 0 3 -0.5l3 -1.5q1 0 2.5 -0.5t2.5 -0.5l6 -2t5 -2
q1 0 2 -0.5l1 -0.5q1 0 1.5 -0.5t1.5 -0.5q2 -1 3.5 -1.5t2.5 -0.5q3 -2 6 -3l6 -2t6 -2.5t6 -2.5q2 -1 3.5 -2t2.5 -1q2 -1 3.5 -1.5t2.5 -1.5q3 -2 6.5 -3.5t6.5 -3.5q3 -1 6 -3l6 -4q2 0 3.5 -1t2.5 -2q2 -1 3.5 -2t3.5 -2l6 -4l6 -4q12 -8 24 -17.5l24 -19.5l21.5 -22
t20.5 -23t18.5 -24.5t16.5 -25.5q8 -12 14.5 -25t11.5 -26q2 -4 3 -7l2 -6q1 -2 1.5 -3.5t1.5 -3.5q0 -1 1 -2.5t1 -3.5l2 -6t2 -7l2 -6l2 -6q0 -1 0.5 -2.5t0.5 -3.5q1 -1 1 -2.5t1 -3.5q0 -3 1 -6t1 -6q1 -3 1.5 -5.5t0.5 -5.5q1 -2 1 -3v-3q1 0 1 -1v-1v-2v-1
q1 -3 1 -5.5t1 -5.5v-2.5v-2.5v-2.5t1 -2.5v-4.5v-5.5q0 -2 0.5 -4t0.5 -5v-8v-8v-6.5v-6.5v-2.5v-2.5q-1 -2 -1 -3.5v-2.5v-3.5v-2.5q-1 -2 -1 -4.5v-5.5v-0.5v-0.5v-0.5v-0.5v0q1 -23 16 -40t37 -21v-0.5v-0.5q-1 -2 -1.5 -4.5t-1.5 -5.5q-1 -2 -1.5 -5t-1.5 -5
q0 -2 -0.5 -3t-0.5 -3q-1 -1 -1.5 -2.5t-0.5 -2.5l-2 -6t-2 -5q0 -1 -0.5 -2l-0.5 -1q0 -1 -0.5 -1.5t-0.5 -1.5q-1 -2 -1.5 -3.5t-0.5 -2.5q-1 -3 -2.5 -6t-2.5 -6t-2.5 -6t-2.5 -6q-1 -2 -1.5 -3.5t-1.5 -2.5q-1 -2 -1.5 -3.5t-1.5 -2.5q-2 -3 -3.5 -6.5t-2.5 -6.5l-4 -6
t-3 -6q-1 -2 -2 -3.5t-2 -2.5q-1 -2 -2 -3.5t-2 -3.5l-4 -6l-4 -6q-8 -12 -17.5 -24l-19.5 -24l-22 -21.5t-23 -20.5t-24.5 -18.5l-24.5 -16.5q-13 -8 -26 -14.5t-26 -11.5q-3 -2 -6.5 -3t-6.5 -2q-2 -1 -3.5 -1.5t-2.5 -1.5q-2 0 -3.5 -1t-3.5 -1l-6 -2l-6 -2q-4 -1 -7 -2
l-6 -2q-1 0 -2.5 -0.5t-3.5 -0.5q-1 -1 -2.5 -1t-3.5 -1q-3 0 -6 -1t-6 -1q-3 -1 -5.5 -1.5t-5.5 -0.5q-2 -1 -3 -1h-3q0 -1 -1 -1h-1h-1.5h-1.5q-3 -1 -5.5 -1t-5.5 -1h-2.5h-2.5h-2.5t-2.5 -1h-4.5h-4.5q-3 0 -5 -0.5t-5 -0.5h-8h-8h-6.5h-6.5h-2.5h-2.5q-2 1 -3.5 1h-2.5
h-3.5h-2.5q-2 1 -4.5 1h-5.5h-0.5h-0.5h-0.5h-0.5v0q-23 -1 -40 -16t-21 -37q-2 0 -4.5 0.5t-5.5 1.5q-2 1 -5 1.5t-5 1.5q-2 0 -3 0.5l-3 1.5q-1 0 -2.5 0.5t-2.5 0.5l-6 2t-5 2q-1 0 -2 0.5l-1 0.5q-1 0 -1.5 0.5t-1.5 0.5q-2 1 -3.5 1.5t-2.5 0.5q-3 2 -6 3l-6 2t-6 2.5
t-6 2.5q-2 1 -3.5 2t-2.5 1q-2 1 -3.5 1.5t-2.5 1.5q-3 2 -6.5 3.5t-6.5 3.5q-3 1 -6 3l-6 4q-2 0 -3.5 1t-2.5 2q-2 1 -3.5 2t-3.5 2l-6 4l-6 4q-12 8 -24 17.5l-24 19.5l-21.5 22t-20.5 23t-18.5 24.5t-16.5 25.5q-8 12 -14.5 25t-11.5 26q-2 4 -3 7l-2 6q-1 2 -1.5 3.5
t-1.5 3.5q0 1 -1 2.5t-1 3.5l-2 6l-2 6q-1 4 -2 7l-2 6q0 1 -0.5 2.5t-0.5 3.5q-1 1 -1 2.5t-1 3.5q0 3 -1 6t-1 6q-1 3 -1.5 5.5t-0.5 5.5q-1 2 -1 3v3q-1 0 -1 1v1v2v1q-1 3 -1 5.5t-1 5.5v2.5v2.5v2.5t-1 2.5v4.5v5.5q0 2 -0.5 4t-0.5 5v8v8v6.5v6.5v2.5v2.5q1 2 1 3.5
v2.5v3.5v2.5q1 2 1 4.5v5.5v0.5v0.5v0.5v0.5v0q-1 23 -16.5 40.5t-37.5 20.5v0z" />
    <glyph glyph-name="uniE984" unicode="loading&#x31;&#x32;" 
d="M1024 576h-384l144 144q-55 54 -125 83t-147 29t-147 -29t-125 -83q-54 -55 -83 -125t-29 -147t29 -147t83 -125q55 -54 125 -83t147 -29t147 29t125 83q4 5 8.5 9.5t8.5 9.5l96 -84q-35 -40 -78 -72.5t-92 -55t-103 -35t-112 -12.5q-106 0 -199.5 40t-163 109.5
t-109.5 163t-40 199.5t40 199.5t109.5 163t163 109.5t199.5 40q53 0 103 -10.5t96 -30t87 -47t76 -62.5l150 150v-384v0z" />
    <glyph glyph-name="uniE985" unicode="binoculars" 
d="M64 960h384v-64h-384v64zM576 960h384v-64h-384v64zM952 640h-56v256h-256v-256h-256v256h-256v-256h-56q-30 0 -51 -21t-21 -51v-560q0 -30 21 -51t51 -21h304q30 0 51 21t21 51v376h128v-376q0 -30 21 -51t51 -21h304q30 0 51 21t21 51v560q0 30 -21 51t-51 21v0z
M348 0h-248q-15 0 -25.5 9.5t-10.5 22.5t10.5 22.5t25.5 9.5h248q15 0 25.5 -9.5t10.5 -22.5t-10.5 -22.5t-25.5 -9.5v0zM544 448h-64q-13 0 -22.5 9.5t-9.5 22.5t9.5 22.5t22.5 9.5h64q13 0 22.5 -9.5t9.5 -22.5t-9.5 -22.5t-22.5 -9.5v0zM924 0h-248q-15 0 -25.5 9.5
t-10.5 22.5t10.5 22.5t25.5 9.5h248q15 0 25.5 -9.5t10.5 -22.5t-10.5 -22.5t-25.5 -9.5v0z" />
    <glyph glyph-name="uniE986" unicode="magnifier" 
d="M992 89l-242 206q-19 17 -38.5 25t-35.5 7q43 50 67.5 114t24.5 135q0 80 -30 149.5t-82.5 122t-122 82.5t-149.5 30t-149.5 -30t-122 -82.5t-82.5 -122t-30 -149.5t30 -149.5t82.5 -122t122 -82.5t149.5 -30q71 0 135 24.5t114 67.5q-1 -16 7 -35.5t25 -38.5l206 -242
q27 -30 64.5 -32t64.5 24q26 27 24 64.5t-32 64.5v0zM384 320q-53 0 -99.5 20t-81.5 55t-55 81.5t-20 99.5t20 99.5t55 81.5t81.5 55t99.5 20t99.5 -20t81.5 -55t55 -81.5t20 -99.5t-20 -99.5t-55 -81.5t-81.5 -55t-99.5 -20v0z" />
    <glyph glyph-name="uniE987" unicode="magnifier&#x32;" 
d="M992 89l-242 206q-19 17 -38.5 25t-35.5 7q43 50 67.5 114t24.5 135q0 80 -30 149.5t-82.5 122t-122 82.5t-149.5 30t-149.5 -30t-122 -82.5t-82.5 -122t-30 -149.5t30 -149.5t82.5 -122t122 -82.5t149.5 -30q71 0 135 24.5t114 67.5q-1 -16 7 -35.5t25 -38.5l206 -242
q27 -30 64.5 -32t64.5 24q26 27 24 64.5t-32 64.5v0zM384 320q-53 0 -99.5 20t-81.5 55t-55 81.5t-20 99.5t20 99.5t55 81.5t81.5 55t99.5 20t99.5 -20t81.5 -55t55 -81.5t20 -99.5t-20 -99.5t-55 -81.5t-81.5 -55t-99.5 -20v0zM448 768h-128v-128h-128v-128h128v-128h128
v128h128v128h-128v128z" />
    <glyph glyph-name="uniE988" unicode="magnifier&#x33;" 
d="M992 89l-242 206q-19 17 -38.5 25t-35.5 7q43 50 67.5 114t24.5 135q0 80 -30 149.5t-82.5 122t-122 82.5t-149.5 30t-149.5 -30t-122 -82.5t-82.5 -122t-30 -149.5t30 -149.5t82.5 -122t122 -82.5t149.5 -30q71 0 135 24.5t114 67.5q-1 -16 7 -35.5t25 -38.5l206 -242
q27 -30 64.5 -32t64.5 24q26 27 24 64.5t-32 64.5v0zM384 320q-53 0 -99.5 20t-81.5 55t-55 81.5t-20 99.5t20 99.5t55 81.5t81.5 55t99.5 20t99.5 -20t81.5 -55t55 -81.5t20 -99.5t-20 -99.5t-55 -81.5t-81.5 -55t-99.5 -20v0zM192 640h384v-128h-384v128z" />
    <glyph glyph-name="uniE989" unicode="expand" 
d="M1024 960h-416l160 -160l-192 -192l96 -96l192 192l160 -160v416zM1024 -64v416l-160 -160l-192 192l-96 -96l192 -192l-160 -160h416zM0 -64h416l-160 160l192 192l-96 96l-192 -192l-160 160v-416zM0 960v-416l160 160l192 -192l96 96l-192 192l160 160h-416z" />
    <glyph glyph-name="uniE98A" unicode="collapse" 
d="M576 512h416l-160 160l192 192l-96 96l-192 -192l-160 160v-416zM576 384v-416l160 160l192 -192l96 96l-192 192l160 160h-416zM448 384h-416l160 -160l-192 -192l96 -96l192 192l160 -160v416zM448 512v416l-160 -160l-192 192l-96 -96l192 -192l-160 -160h416z" />
    <glyph glyph-name="uniE98B" unicode="expand&#x32;" 
d="M1024 960v-416l-160 160l-192 -192l-96 96l192 192l-160 160h416zM448 288l-192 -192l160 -160h-416v416l160 -160l192 192z" />
    <glyph glyph-name="uniE98C" unicode="collapse&#x32;" 
d="M448 384v-416l-160 160l-192 -192l-96 96l192 192l-160 160h416zM1024 864l-192 -192l160 -160h-416v416l160 -160l192 192z" />
    <glyph glyph-name="uniE98D" unicode="key" 
d="M704 960q-66 0 -124.5 -25t-102 -68.5t-68.5 -102t-25 -124.5q0 -15 1.5 -29.5t3.5 -29.5l-389 -389v-192q0 -27 18.5 -45.5t45.5 -18.5h64v64h128v128h128v128h128l83 83q26 -9 53 -14t56 -5q66 0 124.5 25t102 68.5t68.5 102t25 124.5t-25 124.5t-68.5 102t-102 68.5
t-124.5 25v0zM800 640q-40 0 -68 28t-28 68t28 68t68 28t68 -28t28 -68t-28 -68t-68 -28v0z" />
    <glyph glyph-name="uniE98E" unicode="key&#x32;" 
d="M1002 646l-101 101l-45.5 44.5l-44.5 45.5l-101 101q-19 19 -47.5 21.5t-50.5 -11.5l-277 -184q-22 -15 -29 -42t5 -51l70 -141q2 -3 3.5 -6.5t4.5 -6.5l-357 -357l-32 -224h192v64h128v128h128v128h128v71l9.5 -5.5t8.5 -4.5l141 -70q24 -12 51 -5t42 29l184 277
q14 22 11.5 50.5t-21.5 47.5v0zM151 105l-46 46l312 311l45 -45l-311 -312v0zM917 536l-45 -45q-10 -9 -23 -9t-22 9l-272 272q-9 9 -9 22t9 23l45 45q10 9 23 9t22 -9l272 -272q9 -9 9 -22t-9 -23v0z" />
    <glyph glyph-name="uniE98F" unicode="lock" 
d="M592 512h-16v192q0 79 -56.5 135.5t-135.5 56.5h-128q-79 0 -135.5 -56.5t-56.5 -135.5v-192h-16q-20 0 -34 -14t-14 -34v-480q0 -20 14 -34t34 -14h544q20 0 34 14t14 34v480q0 20 -14 34t-34 14v0zM192 704q0 26 19 45t45 19h128q26 0 45 -19t19 -45v-192h-256v192v0z
" />
    <glyph glyph-name="uniE990" unicode="lock&#x2d;open" 
d="M768 896q79 0 135.5 -56.5t56.5 -135.5v-192h-128v192q0 26 -19 45t-45 19h-128q-26 0 -45 -19t-19 -45v-192h16q20 0 34 -14t14 -34v-480q0 -20 -14 -34t-34 -14h-544q-20 0 -34 14t-14 34v480q0 20 14 34t34 14h400v192q0 79 56.5 135.5t135.5 56.5h128v0z" />
    <glyph glyph-name="uniE991" unicode="tool" 
d="M1003 142l-461 395q16 30 25 64t9 71q0 60 -22.5 112.5t-61.5 91.5t-91.5 61.5t-112.5 22.5q-22 0 -43 -3t-41 -9l167 -167q18 -18 18 -45t-18 -45l-102 -102q-18 -18 -45 -18t-45 18l-167 167q-6 -20 -9 -41t-3 -43q0 -60 22.5 -112.5t61.5 -91.5t91.5 -61.5
t112.5 -22.5q37 0 71 9t64 25l395 -461q17 -20 42.5 -21t44.5 18l101 101q19 19 18 44.5t-21 42.5v0z" />
    <glyph glyph-name="uniE992" unicode="equali&#x7a;er" 
d="M448 832v16q0 20 -14 34t-34 14h-160q-20 0 -34 -14t-14 -34v-16h-192v-128h192v-16q0 -20 14 -34t34 -14h160q20 0 34 14t14 34v16h576v128h-576v0zM256 704v128h128v-128h-128v0zM832 528q0 20 -14 34t-34 14h-160q-20 0 -34 -14t-14 -34v-16h-576v-128h576v-16
q0 -20 14 -34t34 -14h160q20 0 34 14t14 34v16h192v128h-192v16v0zM640 384v128h128v-128h-128v0zM448 208q0 20 -14 34t-34 14h-160q-20 0 -34 -14t-14 -34v-16h-192v-128h192v-16q0 -20 14 -34t34 -14h160q20 0 34 14t14 34v16h576v128h-576v16v0zM256 64v128h128v-128
h-128v0z" />
    <glyph glyph-name="uniE993" unicode="equali&#x7a;er&#x32;" 
d="M896 512h16q20 0 34 14t14 34v160q0 20 -14 34t-34 14h-16v192h-128v-192h-16q-20 0 -34 -14t-14 -34v-160q0 -20 14 -34t34 -14h16v-576h128v576v0zM768 704h128v-128h-128v128v0zM592 128q20 0 34 14t14 34v160q0 20 -14 34t-34 14h-16v576h-128v-576h-16
q-20 0 -34 -14t-14 -34v-160q0 -20 14 -34t34 -14h16v-192h128v192h16v0zM448 320h128v-128h-128v128v0zM272 512q20 0 34 14t14 34v160q0 20 -14 34t-34 14h-16v192h-128v-192h-16q-20 0 -34 -14t-14 -34v-160q0 -20 14 -34t34 -14h16v-576h128v576h16v0zM128 704h128v-128
h-128v128v0z" />
    <glyph glyph-name="uniE994" unicode="cog" 
d="M934 350q-20 35 -24.5 73t5 74.5t33 67.5t58.5 51l-101 175q-21 -13 -46 -20t-52 -7q-40 0 -75.5 15.5t-62 42t-41.5 62t-15 76.5h-201q0 -25 -6.5 -50t-19.5 -48q-21 -35 -52 -58t-67 -32.5t-74.5 -5t-73.5 24.5l-101 -174q22 -13 40.5 -31t31.5 -41q20 -35 24.5 -73
t-5.5 -74t-33 -67.5t-58 -51.5l101 -174q21 12 46 19t51 7q40 0 75.5 -15.5t62 -42t42 -62t15.5 -75.5h201q0 25 6.5 49.5t19.5 47.5q20 35 51 58t67.5 32.5t74.5 5t74 -24.5l100 175q-21 12 -39.5 30t-31.5 41v0zM512 241q-43 0 -80.5 16t-66 44.5t-44.5 66t-16 80.5
t16 80.5t44.5 66t66 44.5t80.5 16t80.5 -16t66 -44.5t44.5 -66t16 -80.5t-16 -80.5t-44.5 -66t-66 -44.5t-80.5 -16v0z" />
    <glyph glyph-name="uniE995" unicode="cogs" 
d="M364 238l41 58l-45 45l-58 -41q-8 4 -16.5 7.5t-17.5 6.5l-12 70h-64l-12 -70q-9 -3 -17.5 -6.5t-16.5 -7.5l-58 41l-45 -45l41 -58q-4 -8 -7.5 -16.5t-6.5 -17.5l-70 -12v-64l70 -12q3 -9 6.5 -17.5t7.5 -16.5l-41 -58l45 -45l58 41q8 -4 16.5 -7.5t17.5 -6.5l12 -70h64
l12 70q9 3 17.5 6.5t16.5 7.5l58 -41l45 45l-41 58q4 8 7.5 16.5t6.5 17.5l70 12v64l-70 12q-3 9 -6.5 17.5t-7.5 16.5v0zM224 96q-27 0 -45.5 18.5t-18.5 45.5t18.5 45.5t45.5 18.5t45.5 -18.5t18.5 -45.5t-18.5 -45.5t-45.5 -18.5v0zM1024 576v64l-67 12q-1 6 -2.5 12
t-2.5 12l57 37l-24 59l-67 -14q-3 5 -6.5 10t-6.5 10l39 56l-46 46l-56 -39q-5 3 -10 6.5t-10 6.5l14 67l-59 24l-37 -57q-6 1 -12 2.5t-12 2.5l-12 67h-64l-12 -67q-6 -1 -12 -2.5t-12 -2.5l-37 57l-59 -24l14 -67q-5 -3 -10 -6.5t-10 -6.5l-56 39l-46 -46l39 -56
q-3 -5 -6.5 -10t-6.5 -10l-67 14l-24 -59l57 -37q-1 -6 -2.5 -12t-2.5 -12l-67 -12v-64l67 -12q1 -6 2.5 -12t2.5 -12l-57 -37l24 -59l67 14q3 -5 6.5 -10t6.5 -10l-39 -56l46 -46l56 39q5 -3 10 -6.5t10 -6.5l-14 -67l59 -24l37 57q6 -1 12 -2.5t12 -2.5l12 -67h64l12 67
q6 1 12 2.5t12 2.5l37 -57l59 24l-14 67q5 3 10 6.5t10 6.5l56 -39l46 46l-39 56q3 5 6.5 10t6.5 10l67 -14l24 59l-57 37q1 6 2.5 12t2.5 12l67 12v0zM672 469q-58 0 -98.5 40.5t-40.5 98.5t40.5 98.5t98.5 40.5t98.5 -40.5t40.5 -98.5t-40.5 -98.5t-98.5 -40.5v0z" />
    <glyph glyph-name="uniE996" unicode="hammer" 
d="M1010 131l-302 302q-14 14 -33.5 14t-33.5 -14l-23 -23l-184 184l302 302h-320l-142 -142l-14 14h-68v-68l14 -14l-206 -206l160 -160l206 206l184 -184l-23 -23q-14 -14 -14 -33.5t14 -33.5l302 -302q14 -14 34 -14t34 14l113 113q14 14 14 34t-14 34v0z" />
    <glyph glyph-name="uniE997" unicode="magic&#x2d;wand" 
d="M256 768l-128 128h-64v-64l128 -128zM320 960h64v-128h-64v128zM576 640h128v-64h-128v64zM640 832v64h-64l-128 -128l64 -64zM0 640h128v-64h-128v64zM320 384h64v-128h-64v128zM64 384v-64h64l128 128l-64 64zM1010 78l-636 636q-14 14 -34 14t-34 -14l-60 -60
q-14 -14 -14 -34t14 -34l636 -636q14 -14 34 -14t34 14l60 60q14 14 14 34t-14 34v0zM480 416l-192 192l64 64l192 -192l-64 -64v0z" />
    <glyph glyph-name="uniE998" unicode="aid&#x2d;kit" 
d="M896 704h-192v128q0 26 -19 45t-45 19h-256q-26 0 -45 -19t-19 -45v-128h-192q-53 0 -90.5 -37.5t-37.5 -90.5v-512q0 -53 37.5 -90.5t90.5 -37.5h768q53 0 90.5 37.5t37.5 90.5v512q0 53 -37.5 90.5t-90.5 37.5v0zM384 832h256v-128h-256v128v0zM768 256h-192v-192h-128
v192h-192v128h192v192h128v-192h192v-128v0z" />
    <glyph glyph-name="uniE999" unicode="bug" 
d="M1024 384v64h-193q-5 55 -23.5 103.5t-48.5 88.5h162l70 280l-62 16l-58 -232h-175q0 1 -1 1.5l-1 0.5q5 15 7.5 30.5t2.5 32.5q0 79 -56 135t-136 56t-136 -56t-56 -135q0 -17 2.5 -32.5t7.5 -30.5l-1 -0.5t-1 -1.5h-175l-58 232l-62 -16l70 -280h162
q-30 -40 -48.5 -88.5t-23.5 -103.5h-193v-64h193q3 -34 11.5 -66.5t22.5 -61.5h-124l-70 -280l62 -16l58 232h112q44 -58 108.5 -92.5t138.5 -34.5t138.5 34.5t108.5 92.5h112l58 -232l62 16l-70 280h-124q14 29 22.5 61.5t11.5 66.5h193v0z" />
    <glyph glyph-name="uniE99A" unicode="pie&#x2d;chart" 
d="M448 384v448q-93 0 -174.5 -35t-142.5 -96t-96 -142.5t-35 -174.5t35 -174.5t96 -142.5t142.5 -96t174.5 -35t174.5 35t142.5 96t96 142.5t35 174.5q0 54 -12.5 104.5t-34.5 95.5l-401 -200v0zM913 712q-28 55 -69.5 101t-93 78.5t-112 50.5t-126.5 18v-448l401 200v0z
" />
    <glyph glyph-name="uniE99B" unicode="stats&#x32;" 
d="M128 64h896v-128h-1024v1024h128v-896zM288 128q-40 0 -68 28t-28 68t28 68t68 28h4h4l104 172q-8 11 -12 24t-4 28q0 40 28 68t68 28t68 -28t28 -68q0 -15 -4 -28t-12 -24l104 -172h4h4h3.5h2.5l171 298q-8 11 -12.5 25t-4.5 29q0 40 28 68t68 28t68 -28t28 -68t-28 -68
t-68 -28h-3.5h-2.5l-171 -298q8 -11 12.5 -25t4.5 -29q0 -40 -28 -68t-68 -28t-68 28t-28 68q0 15 4 28t12 24l-104 172h-4h-4h-4h-4l-104 -172q8 -11 12 -24t4 -28q0 -40 -28 -68t-68 -28v0z" />
    <glyph glyph-name="uniE99C" unicode="stats&#x33;" 
d="M0 128h1024v-128h-1024v128zM128 384h128v-192h-128v192zM320 640h128v-448h-128v448zM512 448h128v-256h-128v256zM704 832h128v-640h-128v640z" />
    <glyph glyph-name="uniE99D" unicode="stats&#x34;" 
d="M288 576h-192q-13 0 -22.5 -9.5t-9.5 -22.5v-576q0 -13 9.5 -22.5t22.5 -9.5h192q13 0 22.5 9.5t9.5 22.5v576q0 13 -9.5 22.5t-22.5 9.5v0zM288 0h-192v256h192v-256v0zM608 704h-192q-13 0 -22.5 -9.5t-9.5 -22.5v-704q0 -13 9.5 -22.5t22.5 -9.5h192q13 0 22.5 9.5
t9.5 22.5v704q0 13 -9.5 22.5t-22.5 9.5v0zM608 0h-192v320h192v-320v0zM928 832h-192q-13 0 -22.5 -9.5t-9.5 -22.5v-832q0 -13 9.5 -22.5t22.5 -9.5h192q13 0 22.5 9.5t9.5 22.5v832q0 13 -9.5 22.5t-22.5 9.5v0zM928 0h-192v384h192v-384v0z" />
    <glyph glyph-name="uniE99E" unicode="cup" 
d="M832 768v128h-640v-128h-192v-128q0 -80 56 -136t136 -56q15 0 29.5 2.5t28.5 6.5q34 -50 85.5 -84t112.5 -47v-198h-64q-53 0 -90.5 -37.5t-37.5 -90.5h512q0 53 -37.5 90.5t-90.5 37.5h-64v198q61 13 112.5 47t85.5 84q14 -4 28.5 -6.5t29.5 -2.5q80 0 136 56t56 136
v128h-192v0zM192 524q-48 0 -82 34t-34 82v64h116v-64q0 -30 5.5 -58.5t15.5 -55.5q-5 -1 -10.5 -1.5t-10.5 -0.5v0zM948 640q0 -48 -34 -82t-82 -34q-5 0 -10.5 0.5t-10.5 1.5q10 27 15.5 55.5t5.5 58.5v64h116v-64v0z" />
    <glyph glyph-name="uniE99F" unicode="gift" 
d="M772 640l26 20.5t25 22.5q25 25 41 55t22 61q6 34 -2.5 64t-29.5 51q-16 17 -38.5 25.5t-48.5 8.5q-37 0 -74.5 -17t-69.5 -48q-49 -50 -79.5 -112.5t-46.5 -111.5q-11 49 -36 109.5t-70 104.5q-24 24 -53 36.5t-59 12.5q-23 0 -45 -8.5t-39 -24.5q-37 -38 -32.5 -95.5
t47.5 -101.5q16 -15 34 -28t37 -24h-217v-256h64v-448h768v448h64v256h-188v0zM674 832q21 21 45.5 32.5t47.5 11.5q8 0 18 -2.5t18 -10.5q20 -19 10.5 -58t-41.5 -71q-33 -33 -74.5 -56t-79.5 -38h-51q14 43 40 96.5t67 95.5v0zM234 799q-1 7 1 18t11 21q8 7 17 9.5t16 2.5
v0q16 0 32 -7t29 -20q26 -26 46.5 -65.5t34.5 -90.5q0 -2 0.5 -3l1.5 -3q-2 1 -3.5 1t-2.5 1q-51 14 -90.5 34.5t-65.5 45.5q-12 12 -19 26.5t-8 29.5v0zM448 0h-256v416h256v-416v0zM448 448h-320v128h320v-128v0zM832 0h-256v416h256v-416v0zM896 448h-320v128h320v-128v0
z" />
    <glyph glyph-name="uniE9A0" unicode="drink" 
d="M778 943q-4 8 -12 12.5t-16 4.5h-476q-8 0 -16 -4.5t-12 -12.5q-26 -49 -40 -106t-14 -117q0 -79 23.5 -151.5t67.5 -128.5q34 -43 76 -71.5t89 -40.5v-328h-96q-13 0 -22.5 -9.5t-9.5 -22.5t9.5 -22.5t22.5 -9.5h320q13 0 22.5 9.5t9.5 22.5t-9.5 22.5t-22.5 9.5h-96
v328q47 12 89 40.5t76 71.5q44 56 67.5 128.5t23.5 151.5q0 60 -14 117t-40 106v0zM294 896h436q19 -40 28.5 -84.5t9.5 -91.5v-8v-8h-512v8v8q0 47 9.5 91.5t28.5 84.5v0z" />
    <glyph glyph-name="uniE9A1" unicode="drink&#x32;" 
d="M889 780q6 7 7 16.5t-3 17.5t-12 13t-17 5h-704q-9 0 -17 -5t-12 -13t-3 -17.5t7 -16.5l313 -398v-382h-96q-13 0 -22.5 -9.5t-9.5 -22.5t9.5 -22.5t22.5 -9.5h320q13 0 22.5 9.5t9.5 22.5t-9.5 22.5t-22.5 9.5h-96v382l313 398v0zM798 768l-100 -128h-372l-100 128h572
v0z" />
    <glyph glyph-name="uniE9A2" unicode="drink&#x33;" 
d="M960 640h-192v96q0 33 -30 62t-82.5 51t-122 34.5t-149.5 12.5t-149.5 -12.5t-122 -34.5t-82.5 -51t-30 -62v-640q0 -33 30 -62t82.5 -51t122 -34.5t149.5 -12.5t149.5 12.5t122 34.5t82.5 51t30 62v96h192q27 0 45.5 18.5t18.5 45.5v320q0 27 -18.5 45.5t-45.5 18.5v0z
M176 702q-28 9 -45 18t-26 16q9 7 26 16t45 18q44 15 97.5 22.5t110.5 7.5t110.5 -7.5t97.5 -22.5q28 -9 45 -18t26 -16q-9 -7 -26 -16t-45 -18q-44 -15 -97.5 -22.5t-110.5 -7.5t-110.5 7.5t-97.5 22.5v0zM896 320h-128v192h128v-192v0z" />
    <glyph glyph-name="uniE9A3" unicode="food" 
d="M224 960q-40 0 -75 -17.5t-61 -48t-41 -71.5t-15 -87q0 -79 42 -139.5t106 -78.5l-32 -518q-2 -26 16 -45t44 -19h32q26 0 44 19t16 45l-32 518q64 18 106 78.5t42 139.5q0 46 -15 87t-41 71.5t-61 48t-75 17.5v0zM869 960l-53 -320h-40l-27 320h-26l-27 -320h-40
l-53 320h-27v-416q0 -13 9.5 -22.5t22.5 -9.5h83l-31 -512q-2 -26 16 -45t44 -19h32q26 0 44 19t16 45l-31 512h83q13 0 22.5 9.5t9.5 22.5v416h-27v0z" />
    <glyph glyph-name="uniE9A4" unicode="leaf" 
d="M1011 826q-41 31 -93 56t-110.5 42t-122.5 26.5t-130 9.5q-81 0 -153.5 -14t-134.5 -40.5t-111.5 -65t-83.5 -87.5q-32 -47 -49.5 -101.5t-20.5 -116.5q-3 -55 6.5 -116t30.5 -126q35 107 100.5 199.5t153 161t192 107.5t219.5 39l-47.5 -15.5t-118 -51.5t-151.5 -95
t-149 -146l-1.5 -2.5t-4.5 -6.5q-27 -36 -50.5 -77.5t-40.5 -87.5q-15 -36 -29 -78t-24.5 -90t-17 -101.5t-6.5 -112.5h128l-5.5 78.5t19.5 184.5q42 -6 79.5 -9t71.5 -3q88 0 152.5 20t111.5 61q41 36 67.5 84t50.5 100l40.5 82t51.5 83t73 80.5t104 74.5q7 4 11 11t5 15
q0 8 -3 15.5t-10 12.5v0z" />
    <glyph glyph-name="uniE9A5" unicode="jet" 
d="M704 896l-320 -320h-192l-192 -256l33.5 8.5t83 16.5t105.5 11.5t100 -6.5l-322 -414l422 328q22 -50 19 -108t-16 -106.5t-27 -81l-14 -32.5l256 192v192l320 320l64 320l-320 -64v0z" />
    <glyph glyph-name="uniE9A6" unicode="gauge" 
d="M512 896q106 0 199.5 -40t163 -109.5t109.5 -163t40 -199.5q0 -72 -19 -139t-54 -124.5t-83.5 -104.5t-107.5 -80h-496q-59 33 -107.5 80t-83.5 104.5t-54 124.5t-19 139q0 106 40 199.5t109.5 163t163 109.5t199.5 40v0zM802 94q29 29 51.5 62.5t37.5 70.5t23 76.5
t8 80.5h-90v64h85q-5 34 -16 66t-27 62h-106v64h64q-7 9 -14.5 17.5t-15.5 16.5q-35 35 -76 60t-86 40v-70h-64v85q-16 2 -32 3.5t-32 1.5t-32 -1.5t-32 -3.5v-85h-64v70q-45 -15 -86 -40t-76 -60q-8 -8 -15.5 -16.5t-14.5 -17.5h64v-64h-106q-16 -30 -27 -62t-16 -66h85
v-64h-90q0 -41 8 -80.5t23 -76.5t37.5 -70.5t51.5 -62.5q8 -8 16.5 -15.5t17.5 -14.5h192l37 512h54l37 -512h192q9 7 17.5 14.5t16.5 15.5v0z" />
    <glyph glyph-name="uniE9A7" unicode="gauge&#x32;" 
d="M512 960q-106 0 -199.5 -40t-163 -109.5t-109.5 -163t-40 -199.5t40 -199.5t109.5 -163t163 -109.5t199.5 -40t199.5 40t163 109.5t109.5 163t40 199.5t-40 199.5t-109.5 163t-163 109.5t-199.5 40v0zM303 126q8 23 12.5 47.5t4.5 50.5q0 47 -14 89.5t-39 77.5t-60 61.5
t-76 42.5q7 63 35 120.5t74 104.5q55 54 125 83t147 29t147 -29t125 -83q46 -47 74 -104.5t35 -120.5q-41 -16 -76 -42.5t-60 -61.5t-39 -77.5t-14 -89.5q0 -26 4.5 -50.5t12.5 -47.5q-46 -30 -99 -46t-110 -16t-110 16t-99 46v0zM552 319q10 -3 17 -11.5t7 -19.5v-64
q0 -13 -9.5 -22.5t-22.5 -9.5h-64q-13 0 -22.5 9.5t-9.5 22.5v64q0 11 7 19.5t17 11.5l24 449h32l24 -449v0z" />
    <glyph glyph-name="uniE9A8" unicode="gavel" 
d="M1010 44l-548 500l25 25q16 16 24.5 35.5t9.5 40.5q1 0 1.5 0.5t1.5 0.5l103 65q10 12 9.5 29t-11.5 28l-179 180q-12 11 -29 12t-29 -10l-64 -103q0 -1 -0.5 -1.5t-0.5 -1.5q-21 -1 -40.5 -9.5t-35.5 -24.5l-97 -98q-16 -16 -24.5 -35.5t-9.5 -39.5q-1 -1 -1.5 -1
t-1.5 -1l-103 -64q-11 -13 -10 -29.5t12 -28.5l179 -179q12 -12 28.5 -12.5t29.5 9.5l64 104l0.5 1t0.5 2q21 1 40.5 9.5t35.5 24.5l28 28l498 -550q11 -12 25.5 -13.5t24.5 7.5l50 51q9 9 7.5 23.5t-13.5 25.5v0z" />
    <glyph glyph-name="uniE9A9" unicode="flame" 
d="M321 -64q-51 107 -35 175t56 125q43 63 57.5 115l14.5 52l20 -41t7 -109q30 33 48.5 74t27.5 81t10 74.5t-3 54.5q67 -47 114 -118.5t69 -153.5t15.5 -167.5t-45.5 -161.5q207 117 253.5 254.5t13.5 259.5t-104 210.5t-98 108.5q18 -40 17.5 -96.5t-37.5 -88.5
q-31 117 -79.5 190.5t-94 114.5t-79 56l-33.5 15q9 -60 -5 -122.5t-42.5 -123t-67.5 -117t-79 -106.5q-3 48 -10 86t-32 84q-3 -43 -18.5 -83.5t-35.5 -80.5l-39 -80.5t-28 -83.5q-12 -60 -6.5 -112t33.5 -100t81 -93.5t134 -91.5v0z" />
    <glyph glyph-name="uniE9AA" unicode="beta" 
d="M956 156l-316 527v213h32q13 0 22.5 9.5t9.5 22.5t-9.5 22.5t-22.5 9.5h-320q-13 0 -22.5 -9.5t-9.5 -22.5t9.5 -22.5t22.5 -9.5h32v-213l-316 -527q-55 -91 -18.5 -155.5t142.5 -64.5h640q106 0 142.5 64.5t-18.5 155.5v0zM241 320l207 345v231h128v-231l207 -345h-542
v0z" />
    <glyph glyph-name="uniE9AB" unicode="attract" 
d="M896 960h-256l64 -576q0 -80 -56 -136t-136 -56t-136 56t-56 136l64 576h-256l-64 -576q0 -93 35 -174.5t96 -142.5t142.5 -96t174.5 -35t174.5 35t142.5 96t96 142.5t35 174.5l-64 576v0zM778 118q-53 -53 -122 -81.5t-144 -28.5t-144 28.5t-122 81.5
q-52 53 -80.5 120.5t-29.5 141.5l36 325h111l-35 -317v-4q0 -53 20 -101t57 -86q38 -37 86 -57t101 -20t101 20t86 57q37 38 57 86t20 101v4v4l-35 313h111l36 -325q-1 -74 -29.5 -141.5t-80.5 -120.5v0z" />
    <glyph glyph-name="uniE9AC" unicode="bin" 
d="M128 640v-640q0 -26 19 -45t45 -19h576q26 0 45 19t19 45v640h-704v0zM320 64h-64v448h64v-448v0zM448 64h-64v448h64v-448v0zM576 64h-64v448h64v-448v0zM704 64h-64v448h64v-448v0zM848 832h-208v80q0 20 -14 34t-34 14h-224q-20 0 -34 -14t-14 -34v-80h-208
q-20 0 -34 -14t-14 -34v-80h832v80q0 20 -14 34t-34 14v0zM576 832h-192v63h192v-63v0z" />
    <glyph glyph-name="uniE9AD" unicode="bin&#x32;" 
d="M192 -64h640l64 704h-768zM640 832v128h-256v-128h-320v-192l64 64h768l64 -64v192h-320v0zM576 832h-128v64h128v-64v0z" />
    <glyph glyph-name="uniE9AE" unicode="briefcase" 
d="M960 704h-256v64q0 26 -19 45t-45 19h-256q-26 0 -45 -19t-19 -45v-64h-256q-26 0 -45 -19t-19 -45v-576q0 -26 19 -45t45 -19h896q26 0 45 19t19 45v576q0 26 -19 45t-45 19v0zM384 768v0v0h256v0v0v-64h-256v64v0zM960 448h-128v-96q0 -13 -9.5 -22.5t-22.5 -9.5h-64
q-13 0 -22.5 9.5t-9.5 22.5v96h-384v-96q0 -13 -9.5 -22.5t-22.5 -9.5h-64q-13 0 -22.5 9.5t-9.5 22.5v96h-128v64h896v-64v0z" />
    <glyph glyph-name="uniE9AF" unicode="airplane" 
d="M768 320l-183 183l439 329l-128 128l-549 -219l-172 172q-38 38 -83 45.5t-72 -18.5q-26 -27 -18.5 -72t45.5 -83l172 -172l-219 -549l128 -128l329 439l183 -183v-256h128l64 192l192 64v128h-256v0z" />
    <glyph glyph-name="uniE9B0" unicode="truck" 
d="M1024 384l-128 256h-192v128q0 26 -19 45t-45 19h-576q-26 0 -45 -19t-19 -45v-512l64 -64h81q-8 -14 -12.5 -30.5t-4.5 -33.5q0 -53 37.5 -90.5t90.5 -37.5t90.5 37.5t37.5 90.5q0 17 -4.5 33.5t-12.5 30.5h354q-8 -14 -12.5 -30.5t-4.5 -33.5q0 -53 37.5 -90.5
t90.5 -37.5t90.5 37.5t37.5 90.5q0 17 -4.5 33.5t-12.5 30.5h81v192v0zM704 384v192h133l96 -192h-229v0z" />
    <glyph glyph-name="uniE9B1" unicode="asphalt" 
d="M704 -64h320l-256 1024h-192l32 -256h-192l32 256h-192l-256 -1024h320l32 256h320l32 -256v0zM368 320l32 256h224l32 -256h-288v0z" />
    <glyph glyph-name="uniE9B2" unicode="accessibility" 
d="M416 864q0 40 28 68t68 28t68 -28t28 -68t-28 -68t-68 -28t-68 28t-28 68v0zM640 640l330 142l-24 60l-402 -138h-64l-402 138l-24 -60l330 -142v-256l-131 -425l60 -22l185 415h28l185 -415l60 22l-131 425v256z" />
    <glyph glyph-name="uniE9B3" unicode="goal" 
d="M1024 512h-101q-10 67 -40.5 125.5t-76.5 104.5t-104.5 76.5t-125.5 40.5v101h-128v-101q-67 -10 -125.5 -40.5t-104.5 -76.5t-76.5 -104.5t-40.5 -125.5h-101v-128h101q10 -67 40.5 -125.5t76.5 -104.5t104.5 -76.5t125.5 -40.5v-101h128v101q67 10 125.5 40.5
t104.5 76.5t76.5 104.5t40.5 125.5h101v128v0zM793 512h-100q-14 41 -45 72t-72 45v100q40 -9 75.5 -29t64 -48.5t48.5 -64t29 -75.5v0zM512 384q-27 0 -45.5 18.5t-18.5 45.5t18.5 45.5t45.5 18.5t45.5 -18.5t18.5 -45.5t-18.5 -45.5t-45.5 -18.5v0zM448 729v-100
q-41 -14 -72 -45t-45 -72h-100q9 40 29 75.5t48.5 64t64 48.5t75.5 29v0zM231 384h100q14 -41 45 -72t72 -45v-100q-40 9 -75.5 29t-64 48.5t-48.5 64t-29 75.5v0zM576 167v100q41 14 72 45t45 72h100q-9 -40 -29 -75.5t-48.5 -64t-64 -48.5t-75.5 -29v0z" />
    <glyph glyph-name="uniE9B4" unicode="shield" 
d="M960 960l-448 -128l-448 128l-1.5 -35.5t1.5 -92.5l448 -140l448 140q3 57 1.5 92.5l-1.5 35.5v0zM72 765q9 -94 33 -213.5t73.5 -236.5t130.5 -218.5t203 -160.5q122 59 203 160.5t130.5 218.5t73.5 236.5t33 213.5l-440 -165l-440 165v0z" />
    <glyph glyph-name="uniE9B5" unicode="lightning" 
d="M384 960l-384 -512h384l-256 -512l896 640h-512l384 384h-512z" />
    <glyph glyph-name="uniE9B6" unicode="switch" 
d="M640 813v-136q27 -11 52 -28t46 -39q46 -45 70 -103.5t24 -122.5t-24 -122.5t-70 -103.5q-45 -46 -103.5 -70t-122.5 -24t-122.5 24t-103.5 70q-46 45 -70 103.5t-24 122.5t24 122.5t70 103.5q21 22 46 39t52 28v136q-69 -20 -128 -61.5t-101.5 -97.5t-66.5 -125
t-24 -145q0 -93 35 -174.5t96 -142.5t142.5 -96t174.5 -35t174.5 35t142.5 96t96 142.5t35 174.5q0 76 -24 145t-66.5 125t-101.5 97.5t-128 61.5v0zM448 960h128v-512h-128v512z" />
    <glyph glyph-name="uniE9B7" unicode="power&#x2d;cord" 
d="M1024 677l-91 91l-178 -179l-102 102l179 178l-91 91l-178 -179l-115 115l-87 -87l512 -512l87 87l-115 115l179 178v0zM794 286l-444 444q-36 -43 -71 -96.5t-57.5 -112t-25.5 -119t25 -117.5l-132 -132q-24 -24 -24 -57t24 -57l14 -14q24 -24 57 -24t57 24l132 132
q57 -28 117.5 -25t119 25.5t112 57.5t96.5 71v0z" />
    <glyph glyph-name="uniE9B8" unicode="board" 
d="M928 832h-288q0 53 -37.5 90.5t-90.5 37.5t-90.5 -37.5t-37.5 -90.5h-288q-13 0 -22.5 -9.5t-9.5 -22.5v-832q0 -13 9.5 -22.5t22.5 -9.5h832q13 0 22.5 9.5t9.5 22.5v832q0 13 -9.5 22.5t-22.5 9.5v0zM512 896q27 0 45.5 -18.5t18.5 -45.5t-18.5 -45.5t-45.5 -18.5
t-45.5 18.5t-18.5 45.5t18.5 45.5t45.5 18.5v0zM896 0h-768v768h128v-96q0 -13 9.5 -22.5t22.5 -9.5h448q13 0 22.5 9.5t9.5 22.5v96h128v-768v0zM448 101l-205 238l58 58l147 -114l275 242l58 -58z" />
    <glyph glyph-name="uniE9B9" unicode="list&#x2d;numbered" 
d="M384 128h640v-128h-640v128zM384 512h640v-128h-640v128zM384 896h640v-128h-640v128zM192 960v-256h-64v192h-64v64h128zM128 434v-50h128v-64h-192v146l128 60v50h-128v64h192v-146zM256 256v-320h-192v64h128v64h-128v64h128v64h-128v64h192z" />
    <glyph glyph-name="uniE9BA" unicode="list" 
d="M0 960h256v-256h-256v256zM384 896h640v-128h-640v128zM0 576h256v-256h-256v256zM384 512h640v-128h-640v128zM0 192h256v-256h-256v256zM384 128h640v-128h-640v128z" />
    <glyph glyph-name="uniE9BB" unicode="list&#x32;" 
d="M384 896h640v-128h-640v128v0zM384 512h640v-128h-640v128v0zM384 128h640v-128h-640v128v0zM0 832q0 53 37.5 90.5t90.5 37.5t90.5 -37.5t37.5 -90.5t-37.5 -90.5t-90.5 -37.5t-90.5 37.5t-37.5 90.5v0zM0 448q0 53 37.5 90.5t90.5 37.5t90.5 -37.5t37.5 -90.5
t-37.5 -90.5t-90.5 -37.5t-90.5 37.5t-37.5 90.5v0zM0 64q0 53 37.5 90.5t90.5 37.5t90.5 -37.5t37.5 -90.5t-37.5 -90.5t-90.5 -37.5t-90.5 37.5t-37.5 90.5v0z" />
    <glyph glyph-name="uniE9BC" unicode="branches" 
d="M976 192h-16v208q0 46 -33 79t-79 33h-272v128h16q20 0 34 14t14 34v160q0 20 -14 34t-34 14h-160q-20 0 -34 -14t-14 -34v-160q0 -20 14 -34t34 -14h16v-128h-272q-46 0 -79 -33t-33 -79v-208h-16q-20 0 -34 -14t-14 -34v-160q0 -20 14 -34t34 -14h160q20 0 34 14t14 34
v160q0 20 -14 34t-34 14h-16v192h256v-192h-16q-20 0 -34 -14t-14 -34v-160q0 -20 14 -34t34 -14h160q20 0 34 14t14 34v160q0 20 -14 34t-34 14h-16v192h256v-192h-16q-20 0 -34 -14t-14 -34v-160q0 -20 14 -34t34 -14h160q20 0 34 14t14 34v160q0 20 -14 34t-34 14v0z
M192 0h-128v128h128v-128v0zM576 0h-128v128h128v-128v0zM448 704v128h128v-128h-128v0zM960 0h-128v128h128v-128v0z" />
    <glyph glyph-name="uniE9BD" unicode="list&#x33;" 
d="M64 768h896v-192h-896v192zM64 512h896v-192h-896v192zM64 256h896v-192h-896v192z" />
    <glyph glyph-name="uniE9BE" unicode="menu&#x32;" horiz-adv-x="1408" 
d="M0 768h896v-192h-896v192v0zM0 512h896v-192h-896v192v0zM0 256h896v-192h-896v192v0zM992 384l192 -192l192 192h-384zM1376 448l-192 192l-192 -192h384z" />
    <glyph glyph-name="uniE9BF" unicode="menu&#x33;" horiz-adv-x="1408" 
d="M0 768h896v-192h-896v192v0zM0 512h896v-192h-896v192v0zM0 256h896v-192h-896v192v0zM992 512l192 -192l192 192h-384z" />
    <glyph glyph-name="uniE9C0" unicode="menu&#x34;" horiz-adv-x="1408" 
d="M0 768h896v-192h-896v192v0zM0 512h896v-192h-896v192v0zM0 256h896v-192h-896v192v0zM992 320l192 192l192 -192h-384z" />
    <glyph glyph-name="uniE9C1" unicode="cloud" 
d="M1024 302q0 62 -38 109t-95 61q-1 48 -20 90.5t-51.5 74t-75 49.5t-91.5 18q-57 0 -105.5 -24.5t-81.5 -66.5q-18 24 -45.5 38t-59.5 14q-56 0 -95 -39t-39 -94q0 -5 0.5 -10t0.5 -9l-16.5 2t-17.5 1q-40 0 -75.5 -15.5t-62 -41.5t-41.5 -61.5t-15 -75.5t15 -75.5
t41.5 -62t62 -41.5t75.5 -15h656q72 0 123 51t51 123v0z" />
    <glyph glyph-name="uniE9C2" unicode="cloud&#x32;" 
d="M891 600q-1 48 -20 90.5t-51.5 74t-75 49.5t-91.5 18q-57 0 -105.5 -24.5t-81.5 -66.5q-18 24 -45.5 38t-59.5 14q-56 0 -95 -39t-39 -94q0 -5 0.5 -10t0.5 -9l-16.5 2t-17.5 1q-40 0 -75.5 -15.5t-62 -41.5t-41.5 -61.5t-15 -75.5t15 -75.5t41.5 -62t62 -41.5t75.5 -15
h91l227 -235l227 235h111q72 0 123 51t51 123q0 62 -38 109t-95 61v0zM512 128l-192 192h128v192h128v-192h128l-192 -192v0z" />
    <glyph glyph-name="uniE9C3" unicode="cloud&#x33;" 
d="M892 574q2 8 3 16.5t1 17.5q0 66 -47 113t-113 47q-11 0 -21 -1.5t-20 -3.5q-19 58 -69 95.5t-114 37.5q-66 0 -116.5 -39t-67.5 -99q-17 5 -35 7.5t-37 2.5q-53 0 -99.5 -20t-81.5 -55t-55 -81.5t-20 -99.5t20 -99.5t55 -81.5t81.5 -55t99.5 -20h128v-192h256v192h224
q66 0 113 47t47 113q0 59 -38 103t-94 55v0zM576 320v-192h-128v192h-160l224 224l224 -224h-160v0z" />
    <glyph glyph-name="uniE9C4" unicode="cloud&#x34;" 
d="M892 446q2 8 3 16.5t1 17.5q0 66 -47 113t-113 47q-11 0 -21 -1.5t-20 -3.5q-19 58 -69 95.5t-114 37.5q-66 0 -116.5 -39t-67.5 -99q-17 5 -35 7.5t-37 2.5q-53 0 -99.5 -20t-81.5 -55t-55 -81.5t-20 -99.5t20 -99.5t55 -81.5t81.5 -55t99.5 -20h608q66 0 113 47t47 113
q0 59 -38 103t-94 55v0zM416 192l-160 160l64 64l96 -96l224 224l64 -64l-288 -288v0z" />
    <glyph glyph-name="uniE9C5" unicode="download&#x32;" 
d="M896 448h-160l-224 -224l-224 224h-160l-128 -256v-64h1024v64l-128 256v0zM0 64h1024v-64h-1024v64v0zM576 640v256h-128v-256h-224l288 -288l288 288h-224v0z" />
    <glyph glyph-name="uniE9C6" unicode="load&#x32;" 
d="M0 64h1024v-64h-1024v64zM1024 192v-64h-1024v64l128 256h256v-128h256v128h256zM224 640l288 288l288 -288h-224v-256h-128v256h-224z" />
    <glyph glyph-name="uniE9C7" unicode="download&#x33;" 
d="M736 512l-256 -256l-256 256h160v384h192v-384h160zM480 256h-480v-256h960v256h-480v0zM896 128h-128v64h128v-64v0z" />
    <glyph glyph-name="uniE9C8" unicode="load&#x33;" 
d="M480 256h-480v-256h960v256h-480v0zM896 128h-128v64h128v-64v0zM224 640l256 256l256 -256h-160v-320h-192v320h-160z" />
    <glyph glyph-name="uniE9C9" unicode="globe" 
d="M480 896q-99 0 -186.5 -37.5t-153 -103t-103 -153t-37.5 -186.5t37.5 -186.5t103 -153t153 -103t186.5 -37.5t186.5 37.5t153 103t103 153t37.5 186.5t-37.5 186.5t-103 153t-153 103t-186.5 37.5v0zM752 256q6 30 10 62.5t5 65.5h128q-3 -33 -10.5 -65t-20.5 -63h-112v0
zM208 576q-6 -30 -10 -62.5t-5 -65.5h-128q3 33 10.5 65t20.5 63h112v0zM686 576q7 -31 11.5 -63t5.5 -65h-191v128h174v0zM512 640v187q11 -3 22 -8.5t21 -12.5q20 -14 39 -35.5t35 -48.5q11 -18 20.5 -38.5t17.5 -43.5h-155v0zM331 722q16 27 35 48.5t39 35.5
q10 7 21 12.5t22 8.5v-187h-155q8 23 17.5 43.5t20.5 38.5v0zM448 576v-128h-191q1 33 5.5 65t11.5 63h174v0zM96 256q-13 31 -20.5 63t-10.5 65h128q1 -33 5 -65.5t10 -62.5h-112v0zM257 384h191v-128h-174q-7 31 -11.5 63t-5.5 65v0zM448 192v-187q-11 3 -22 8.5t-21 12.5
q-20 14 -39 35.5t-35 48.5q-11 18 -20.5 38.5t-17.5 43.5h155v0zM629 110q-16 -27 -35 -48.5t-39 -35.5q-10 -7 -21 -12.5t-22 -8.5v187h155q-8 -23 -17.5 -43.5t-20.5 -38.5v0zM512 256v128h191q-1 -33 -5.5 -65t-11.5 -63h-174v0zM767 448q-1 33 -5 65.5t-10 62.5h112
q13 -31 20.5 -63t10.5 -65h-128v0zM831 640h-96q-14 44 -33 82.5t-43 68.5q32 -15 61 -35.5t54 -45.5q16 -16 30.5 -33.5t26.5 -36.5v0zM186 710q25 25 54 45.5t61 35.5q-24 -30 -43 -68.5t-33 -82.5h-96q12 19 26.5 36.5t30.5 33.5v0zM129 192h96q14 -44 33 -82.5t43 -68.5
q-32 15 -61 35.5t-54 45.5q-16 16 -30.5 33.5t-26.5 36.5v0zM774 122q-25 -25 -54 -45.5t-61 -35.5q24 30 43 68.5t33 82.5h96q-12 -19 -26.5 -36.5t-30.5 -33.5v0z" />
    <glyph glyph-name="uniE9CA" unicode="earth" 
d="M512 960q-106 0 -199.5 -40t-163 -109.5t-109.5 -163t-40 -199.5t40 -199.5t109.5 -163t163 -109.5t199.5 -40t199.5 40t163 109.5t109.5 163t40 199.5t-40 199.5t-109.5 163t-163 109.5t-199.5 40v0zM512 0q-47 0 -91.5 9.5t-85.5 26.5l233 263q4 4 6 9.5t2 11.5v96
q0 13 -9.5 22.5t-22.5 9.5q-42 0 -84 18.5t-75 40.5t-53.5 40.5t-20.5 19.5q-5 4 -11 6.5t-12 2.5h-128q-13 0 -22.5 -9.5t-9.5 -22.5v-192q0 -9 5 -17t13 -12l110 -55v-188q-44 31 -79 70.5t-60.5 87t-39 100.5t-13.5 110q0 52 11 100t32 92h117q6 0 12 2.5t11 6.5l128 128
q4 5 6.5 11t2.5 12v77q30 9 62.5 14t65.5 5q53 0 102.5 -11.5t93.5 -33.5q-3 -3 -6 -5.5t-6 -5.5q-27 -27 -41.5 -62.5t-14.5 -73.5t14.5 -73.5t41.5 -62.5q28 -27 63 -41.5t73 -14.5h4.5h4.5q6 -19 11.5 -53.5t7.5 -82t-3.5 -107t-23.5 -129.5q0 -1 -0.5 -2.5t-0.5 -2.5
q-30 -32 -66.5 -56.5t-77 -42t-85 -27t-91.5 -9.5v0z" />
    <glyph glyph-name="uniE9CB" unicode="chain" 
d="M440 324q-10 0 -19.5 4t-17.5 11q-35 36 -53 81t-18 92t18 92t53 81l192 192q35 34 79.5 52.5t93.5 18.5t93.5 -18.5t79.5 -52.5q35 -36 53 -81t18 -92t-18 -92t-53 -81l-88 -87q-15 -16 -37 -16t-37 16q-15 15 -15 36.5t15 36.5l88 88q41 41 41 99t-41 99
q-20 20 -45.5 30.5t-53.5 10.5t-53.5 -10.5t-45.5 -30.5l-192 -192q-41 -41 -41 -99t41 -99q15 -15 15 -36.5t-15 -37.5q-8 -7 -17.5 -11t-19.5 -4v0zM256 -52q-49 0 -93.5 18.5t-79.5 52.5q-35 36 -53 81t-18 92t18 92t53 81l88 87q15 16 37 16t37 -16q15 -15 15 -36.5
t-15 -36.5l-88 -88q-41 -41 -41 -99t41 -99q20 -20 45.5 -30.5t53.5 -10.5t53.5 10.5t45.5 30.5l192 192q41 41 41 99t-41 99q-15 15 -15 36.5t15 37.5q15 15 36.5 15t37.5 -15q35 -36 53 -81t18 -92t-18 -92t-53 -81l-192 -192q-35 -34 -79.5 -52.5t-93.5 -18.5v0z" />
    <glyph glyph-name="uniE9CC" unicode="flag" 
d="M0 960h128v-1024h-128v1024v0zM832 317q62 0 113 13.5t79 35.5v512q-28 -22 -79 -35.5t-113 -13.5t-113 13.5t-79 35.5v-512q28 -22 79 -35.5t113 -13.5v0zM608 927q-35 15 -85 24t-107 9q-72 0 -131.5 -13.5t-92.5 -36.5v-512q33 23 92.5 36.5t131.5 13.5q57 0 107 -9
t85 -24v512v0z" />
    <glyph glyph-name="uniE9CD" unicode="attachment" 
d="M666 633l-65 65l-325 -325q-40 -40 -40 -97t40 -98q40 -40 97.5 -40t97.5 40l390 390q33 34 50 76t17 86t-17 86.5t-50 76.5q-34 33 -76.5 50t-86.5 17t-86 -17t-76 -50l-409 -409l-1 -1v0q-47 -47 -70.5 -106t-23.5 -120.5t23.5 -120.5t70.5 -106t106 -70.5t120.5 -23.5
t120.5 23.5t106 70.5v0l1 1v0l279 279l-65 65l-279 -279l-1 -1v0q-34 -34 -76 -50.5t-86 -16.5t-86 16.5t-75 50.5q-34 33 -50.5 75t-16.5 86t16.5 86t50.5 76v0l1 1v0l409 409q40 40 97 40t98 -40q40 -41 40 -98t-40 -97l-390 -390q-13 -13 -32.5 -13t-32.5 13
q-13 14 -13 33t13 32l325 325v0z" />
    <glyph glyph-name="uniE9CE" unicode="eye" 
d="M512 768q-84 0 -161 -23.5t-143 -65.5t-119 -101t-89 -130q36 -71 89 -130t119 -101t143 -65.5t161 -23.5t161 23.5t143 65.5t119 101t89 130q-36 71 -89 130t-119 101t-143 65.5t-161 23.5v0zM764 598q46 -28 83.5 -66.5t66.5 -83.5q-29 -45 -66.5 -83.5t-83.5 -66.5
q-56 -36 -120.5 -55t-131.5 -19t-131.5 19t-120.5 55q-46 28 -83.5 66.5t-66.5 83.5q29 45 66.5 83.5t83.5 66.5q2 2 5 4l6 4q-7 -21 -11 -43t-4 -45q0 -53 20 -99.5t55 -81.5t81.5 -55t99.5 -20t99.5 20t81.5 55t55 81.5t20 99.5q0 23 -4 45t-11 43l6 -4t5 -4v0v0zM512 544
q0 -40 -28 -68t-68 -28t-68 28t-28 68t28 68t68 28t68 -28t28 -68v0z" />
    <glyph glyph-name="uniE9CF" unicode="eye&#x2d;plus" 
d="M1024 832h-128v128h-128v-128h-128v-128h128v-128h128v128h128v128zM864 514q14 -15 26.5 -31.5t23.5 -34.5q-29 -45 -66.5 -83.5t-83.5 -66.5q-56 -36 -120.5 -55t-131.5 -19t-131.5 19t-120.5 55q-46 28 -83.5 66.5t-66.5 83.5q29 45 66.5 83.5t83.5 66.5q2 2 5 4l6 4
q-7 -21 -11 -43t-4 -45q0 -53 20 -99.5t55 -81.5t81.5 -55t99.5 -20t99.5 20t81.5 55t55 81.5t20 99.5v1.5v0.5q-41 11 -76 34t-60.5 55t-40 71.5t-15.5 83.5q-16 2 -32 3t-32 1q-84 0 -161 -23.5t-143 -65.5t-119 -101t-89 -130q36 -71 89 -130t119 -101t143 -65.5
t161 -23.5t161 23.5t143 65.5t119 101t89 130q-13 26 -29 51t-34 48q-22 -13 -46.5 -21.5t-50.5 -11.5v0zM416 640q40 0 68 -28t28 -68t-28 -68t-68 -28t-68 28t-28 68t28 68t68 28v0z" />
    <glyph glyph-name="uniE9D0" unicode="eye&#x2d;minus" 
d="M640 832h384v-128h-384v128v0zM870 640h-294v124q-16 2 -32 3t-32 1q-84 0 -161 -23.5t-143 -65.5t-119 -101t-89 -130q36 -71 89 -130t119 -101t143 -65.5t161 -23.5t161 23.5t143 65.5t119 101t89 130q-28 56 -67 104.5t-87 87.5v0zM416 640q40 0 68 -28t28 -68
t-28 -68t-68 -28t-68 28t-28 68t28 68t68 28v0zM764 298q-56 -36 -120.5 -55t-131.5 -19t-131.5 19t-120.5 55q-46 28 -83.5 66.5t-66.5 83.5q29 45 66.5 83.5t83.5 66.5q2 2 5 4l6 4q-7 -21 -11 -43t-4 -45q0 -53 20 -99.5t55 -81.5t81.5 -55t99.5 -20t99.5 20t81.5 55
t55 81.5t20 99.5q0 23 -4 45t-11 43l6 -4t5 -4q46 -28 83.5 -66.5t66.5 -83.5q-29 -45 -66.5 -83.5t-83.5 -66.5v0z" />
    <glyph glyph-name="uniE9D1" unicode="eye&#x2d;blocked" 
d="M946 946q-14 14 -34 14t-34 -14l-202 -202q-39 12 -80 18t-84 6q-84 0 -161 -23.5t-143 -65.5t-119 -101t-89 -130q31 -62 75 -114.5t98 -92.5l-159 -159q-14 -14 -14 -34t14 -34q7 -7 16 -10.5t18 -3.5t18 3.5t16 10.5l864 864q14 14 14 34t-14 34v0zM416 640
q32 0 56.5 -18.5t34.5 -46.5l-122 -122q-28 10 -46.5 34.5t-18.5 56.5q0 40 28 68t68 28v0zM110 448q29 45 66.5 83.5t83.5 66.5q2 2 5 4l6 4q-7 -21 -11 -43t-4 -45q0 -41 12.5 -78.5t34.5 -68.5l-61 -61q-40 27 -73 62t-59 76v0zM768 518q0 20 -3 39.5t-9 38.5l-322 -322
q19 -6 38.5 -9t39.5 -3q53 0 99.5 20t81.5 55t55 81.5t20 99.5v0zM830 670l-69 -69q1 -1 2 -1.5t1 -1.5q46 -28 83.5 -66.5t66.5 -83.5q-29 -45 -66.5 -83.5t-83.5 -66.5q-56 -36 -120.5 -55t-131.5 -19q-29 0 -57.5 3.5t-56.5 10.5l-77 -77q45 -16 93 -24.5t98 -8.5
q84 0 161 23.5t143 65.5t119 101t89 130q-34 67 -83.5 123.5t-110.5 98.5v0z" />
    <glyph glyph-name="uniE9D2" unicode="bookmark" 
d="M192 960v-1024l320 320l320 -320v1024h-640z" />
    <glyph glyph-name="uniE9D3" unicode="bookmarks" 
d="M256 832v-896l320 320l320 -320v896h-640zM768 960h-640v-896l64 64v768h576v64z" />
    <glyph glyph-name="uniE9D4" unicode="sun" 
d="M512 128q27 0 45.5 -18.5t18.5 -45.5v-64q0 -27 -18.5 -45.5t-45.5 -18.5t-45.5 18.5t-18.5 45.5v64q0 27 18.5 45.5t45.5 18.5v0zM512 768q-27 0 -45.5 18.5t-18.5 45.5v64q0 27 18.5 45.5t45.5 18.5t45.5 -18.5t18.5 -45.5v-64q0 -27 -18.5 -45.5t-45.5 -18.5v0z
M960 512q27 0 45.5 -18.5t18.5 -45.5t-18.5 -45.5t-45.5 -18.5h-64q-27 0 -45.5 18.5t-18.5 45.5t18.5 45.5t45.5 18.5h64v0zM192 448q0 -27 -18.5 -45.5t-45.5 -18.5h-64q-27 0 -45.5 18.5t-18.5 45.5t18.5 45.5t45.5 18.5h64q27 0 45.5 -18.5t18.5 -45.5v0zM829 222
l45 -46q19 -18 19 -44.5t-19 -45.5t-45.5 -19t-44.5 19l-46 45q-18 19 -18 45.5t18 45.5q19 18 45.5 18t45.5 -18v0zM195 674l-45 46q-19 18 -19 44.5t19 45.5t45.5 19t44.5 -19l46 -45q18 -19 18 -45.5t-18 -45.5q-19 -18 -45.5 -18t-45.5 18v0zM829 674q-19 -18 -45.5 -18
t-45.5 18q-18 19 -18 45.5t18 45.5l46 45q18 19 44.5 19t45.5 -19t19 -45.5t-19 -44.5l-45 -46v0zM195 222q19 18 45.5 18t45.5 -18q18 -19 18 -45.5t-18 -45.5l-46 -45q-18 -19 -44.5 -19t-45.5 19t-19 45.5t19 44.5l45 46v0zM512 704q-53 0 -99.5 -20t-81.5 -55t-55 -81.5
t-20 -99.5t20 -99.5t55 -81.5t81.5 -55t99.5 -20t99.5 20t81.5 55t55 81.5t20 99.5t-20 99.5t-55 81.5t-81.5 55t-99.5 20v0zM512 288q-66 0 -113 47t-47 113t47 113t113 47t113 -47t47 -113t-47 -113t-113 -47v0z" />
    <glyph glyph-name="uniE9D5" unicode="contrast" 
d="M512 960q-106 0 -199.5 -40t-163 -109.5t-109.5 -163t-40 -199.5t40 -199.5t109.5 -163t163 -109.5t199.5 -40t199.5 40t163 109.5t109.5 163t40 199.5t-40 199.5t-109.5 163t-163 109.5t-199.5 40v0zM128 448q0 80 30 149.5t82.5 122t122 82.5t149.5 30v-768
q-80 0 -149.5 30t-122 82.5t-82.5 122t-30 149.5v0z" />
    <glyph glyph-name="uniE9D6" unicode="brightness&#x2d;contrast" 
d="M512 704q-53 0 -99.5 -20t-81.5 -55t-55 -81.5t-20 -99.5t20 -99.5t55 -81.5t81.5 -55t99.5 -20t99.5 20t81.5 55t55 81.5t20 99.5t-20 99.5t-55 81.5t-81.5 55t-99.5 20v0zM512 288v320q66 0 113 -47t47 -113t-47 -113t-113 -47v0zM512 128q27 0 45.5 -18.5t18.5 -45.5
v-64q0 -27 -18.5 -45.5t-45.5 -18.5t-45.5 18.5t-18.5 45.5v64q0 27 18.5 45.5t45.5 18.5v0zM512 768q-27 0 -45.5 18.5t-18.5 45.5v64q0 27 18.5 45.5t45.5 18.5t45.5 -18.5t18.5 -45.5v-64q0 -27 -18.5 -45.5t-45.5 -18.5v0zM960 512q27 0 45.5 -18.5t18.5 -45.5
t-18.5 -45.5t-45.5 -18.5h-64q-27 0 -45.5 18.5t-18.5 45.5t18.5 45.5t45.5 18.5h64v0zM192 448q0 -27 -18.5 -45.5t-45.5 -18.5h-64q-27 0 -45.5 18.5t-18.5 45.5t18.5 45.5t45.5 18.5h64q27 0 45.5 -18.5t18.5 -45.5v0zM829 222l45 -46q19 -18 19 -44.5t-19 -45.5
t-45.5 -19t-44.5 19l-46 45q-18 19 -18 45.5t18 45.5q19 18 45.5 18t45.5 -18v0zM195 674l-45 46q-19 18 -19 44.5t19 45.5t45.5 19t44.5 -19l46 -45q18 -19 18 -45.5t-18 -45.5q-19 -18 -45.5 -18t-45.5 18v0zM829 674q-19 -18 -45.5 -18t-45.5 18q-18 19 -18 45.5t18 45.5
l46 45q18 19 44.5 19t45.5 -19t19 -45.5t-19 -44.5l-45 -46v0zM195 222q19 18 45.5 18t45.5 -18q18 -19 18 -45.5t-18 -45.5l-46 -45q-18 -19 -44.5 -19t-45.5 19t-19 45.5t19 44.5l45 46v0z" />
    <glyph glyph-name="uniE9D7" unicode="rate" 
d="M1024 563l-354 51l-158 321l-158 -321l-354 -51l256 -250l-60 -352l316 166l316 -166l-60 352l256 250v0zM512 207l-223 -118l42 249l-181 176l250 36l112 227l112 -227l250 -36l-181 -176l42 -249l-223 118v0z" />
    <glyph glyph-name="uniE9D8" unicode="rate&#x32;" 
d="M1024 563l-354 51l-158 321l-158 -321l-354 -51l256 -250l-60 -352l316 166l316 -166l-60 352l256 250v0zM512 207l-1 -1l1 571l112 -227l250 -36l-181 -176l42 -249l-223 118v0z" />
    <glyph glyph-name="uniE9D9" unicode="rate&#x33;" 
d="M1024 563l-354 51l-158 321l-158 -321l-354 -51l256 -250l-60 -352l316 166l316 -166l-60 352l256 250v0z" />
    <glyph glyph-name="uniE9DA" unicode="heart" 
d="M755 896q-40 0 -77 -15t-68.5 -40t-56.5 -57.5t-41 -66.5q-16 34 -41 66.5t-56.5 57.5t-68.5 40t-77 15q-56 0 -105 -21t-85.5 -57.5t-57.5 -85.5t-21 -105q0 -113 51 -191.5t127.5 -149.5l166 -148.5t167.5 -189.5q74 111 163 190l166.5 151t130 150.5t52.5 187.5
q0 56 -21 105t-57.5 85.5t-85.5 57.5t-105 21v0z" />
    <glyph glyph-name="uniE9DB" unicode="heart&#x32;" 
d="M755 896q56 0 105 -21t85.5 -57.5t57.5 -85.5t21 -105q0 -109 -52.5 -187.5t-130 -150.5l-166.5 -151t-163 -190q-78 112 -167.5 189.5l-166 148.5t-127.5 149.5t-51 191.5q0 56 21 105t57.5 85.5t85.5 57.5t105 21q45 0 86 -19t75 -49l-78 -124l224 -128l-128 -320
l352 384l-224 128l62 93q26 16 56 25.5t61 9.5v0z" />
    <glyph glyph-name="uniE9DC" unicode="man" 
d="M576 864q0 -40 -28 -68t-68 -28t-68 28t-28 68t28 68t68 28t68 -28t28 -68v0zM576 704h-192q-27 0 -45.5 -18.5t-18.5 -45.5v-320h64v-384h80v384h32v-384h80v384h64v320q0 27 -18.5 45.5t-45.5 18.5v0z" />
    <glyph glyph-name="uniE9DD" unicode="female" 
d="M576 864q0 -40 -28 -68t-68 -28t-68 28t-28 68t28 68t68 28t68 -28t28 -68v0zM719 448l49 35l-133 207q-5 6 -12 10t-15 4h-256q-8 0 -15 -4t-12 -10l-133 -206l49 -36l111 144l38 -90l-134 -246h123l21 -320h64v320h32v-320h64l21 320h123l-134 246l38 90l111 -144v0z
" />
    <glyph glyph-name="uniE9DE" unicode="man&#x2d;woman" 
d="M256 864q0 -40 -28 -68t-68 -28t-68 28t-28 68t28 68t68 28t68 -28t28 -68v0zM832 864q0 -40 -28 -68t-68 -28t-68 28t-28 68t28 68t68 28t68 -28t28 -68v0zM256 704h-192q-27 0 -45.5 -18.5t-18.5 -45.5v-320h64v-384h80v384h32v-384h80v384h64v320q0 27 -18.5 45.5
t-45.5 18.5v0zM975 448l49 35l-133 207q-5 6 -12 10t-15 4h-256q-8 0 -15 -4t-12 -10l-133 -206l49 -36l111 144l38 -90l-134 -246h123l21 -320h64v320h32v-320h64l21 320h123l-134 246l38 90l111 -144v0z" />
    <glyph glyph-name="uniE9DF" unicode="emoticon" 
d="M512 -64q106 0 199.5 40t163 109.5t109.5 163t40 199.5t-40 199.5t-109.5 163t-163 109.5t-199.5 40t-199.5 -40t-163 -109.5t-109.5 -163t-40 -199.5t40 -199.5t109.5 -163t163 -109.5t199.5 -40v0zM512 864q86 0 162 -32.5t132.5 -89t89 -132.5t32.5 -162t-32.5 -162
t-89 -132.5t-132.5 -89t-162 -32.5t-162 32.5t-132.5 89t-89 132.5t-32.5 162t32.5 162t89 132.5t132.5 89t162 32.5v0zM512 361q43 0 85.5 6t83 16.5t78.5 26.5t73 36q-5 -67 -32.5 -125t-70.5 -101t-98.5 -67.5t-118.5 -24.5t-118.5 24.5t-98.5 67.5t-70.5 101t-32.5 125
q35 -20 73 -36t78.5 -26.5t83 -16.5t85.5 -6v0zM256 608q0 40 18.5 68t45.5 28t45.5 -28t18.5 -68t-18.5 -68t-45.5 -28t-45.5 28t-18.5 68v0zM640 608q0 40 18.5 68t45.5 28t45.5 -28t18.5 -68t-18.5 -68t-45.5 -28t-45.5 28t-18.5 68v0z" />
    <glyph glyph-name="uniE9E0" unicode="emoticon&#x32;" 
d="M512 960q-106 0 -199.5 -40t-163 -109.5t-109.5 -163t-40 -199.5t40 -199.5t109.5 -163t163 -109.5t199.5 -40t199.5 40t163 109.5t109.5 163t40 199.5t-40 199.5t-109.5 163t-163 109.5t-199.5 40v0zM704 704q27 0 45.5 -28t18.5 -68t-18.5 -68t-45.5 -28t-45.5 28
t-18.5 68t18.5 68t45.5 28v0zM320 704q27 0 45.5 -28t18.5 -68t-18.5 -68t-45.5 -28t-45.5 28t-18.5 68t18.5 68t45.5 28v0zM512 64q-63 0 -118.5 24.5t-98.5 67.5t-70.5 101t-32.5 125q35 -20 73 -36t78.5 -26.5t83 -16.5t85.5 -6t85.5 6t83 16.5t78.5 26.5t73 36
q-5 -67 -32.5 -125t-70.5 -101t-98.5 -67.5t-118.5 -24.5v0z" />
    <glyph glyph-name="uniE9E1" unicode="emoticon&#x33;" 
d="M512 -64q106 0 199.5 40t163 109.5t109.5 163t40 199.5t-40 199.5t-109.5 163t-163 109.5t-199.5 40t-199.5 -40t-163 -109.5t-109.5 -163t-40 -199.5t40 -199.5t109.5 -163t163 -109.5t199.5 -40v0zM512 864q86 0 162 -32.5t132.5 -89t89 -132.5t32.5 -162t-32.5 -162
t-89 -132.5t-132.5 -89t-162 -32.5t-162 32.5t-132.5 89t-89 132.5t-32.5 162t32.5 162t89 132.5t132.5 89t162 32.5v0zM256 640q0 27 18.5 45.5t45.5 18.5t45.5 -18.5t18.5 -45.5t-18.5 -45.5t-45.5 -18.5t-45.5 18.5t-18.5 45.5v0zM640 640q0 27 18.5 45.5t45.5 18.5
t45.5 -18.5t18.5 -45.5t-18.5 -45.5t-45.5 -18.5t-45.5 18.5t-18.5 45.5v0zM704 333l82 -50q-21 -35 -50 -63.5t-64 -49t-75.5 -31.5t-84.5 -11t-84.5 11t-75.5 31.5t-64 49t-50 63.5l82 50q29 -49 80 -79t112 -30t112 30t80 79v0z" />
    <glyph glyph-name="uniE9E2" unicode="emoticon&#x34;" 
d="M512 960q-106 0 -199.5 -40t-163 -109.5t-109.5 -163t-40 -199.5t40 -199.5t109.5 -163t163 -109.5t199.5 -40t199.5 40t163 109.5t109.5 163t40 199.5t-40 199.5t-109.5 163t-163 109.5t-199.5 40v0zM704 704q27 0 45.5 -18.5t18.5 -45.5t-18.5 -45.5t-45.5 -18.5
t-45.5 18.5t-18.5 45.5t18.5 45.5t45.5 18.5v0zM320 704q27 0 45.5 -18.5t18.5 -45.5t-18.5 -45.5t-45.5 -18.5t-45.5 18.5t-18.5 45.5t18.5 45.5t45.5 18.5v0zM512 128q-44 0 -84.5 11t-75.5 31.5t-64 49t-50 63.5l82 50q29 -49 80 -79t112 -30t112 30t80 79l82 -50
q-21 -35 -50 -63.5t-64 -49t-75.5 -31.5t-84.5 -11v0z" />
    <glyph glyph-name="uniE9E3" unicode="emoticon&#x35;" 
d="M512 -64q106 0 199.5 40t163 109.5t109.5 163t40 199.5t-40 199.5t-109.5 163t-163 109.5t-199.5 40t-199.5 -40t-163 -109.5t-109.5 -163t-40 -199.5t40 -199.5t109.5 -163t163 -109.5t199.5 -40v0zM512 864q86 0 162 -32.5t132.5 -89t89 -132.5t32.5 -162t-32.5 -162
t-89 -132.5t-132.5 -89t-162 -32.5t-162 32.5t-132.5 89t-89 132.5t-32.5 162t32.5 162t89 132.5t132.5 89t162 32.5v0zM256 640q0 27 18.5 45.5t45.5 18.5t45.5 -18.5t18.5 -45.5t-18.5 -45.5t-45.5 -18.5t-45.5 18.5t-18.5 45.5v0zM640 640q0 27 18.5 45.5t45.5 18.5
t45.5 -18.5t18.5 -45.5t-18.5 -45.5t-45.5 -18.5t-45.5 18.5t-18.5 45.5v0zM768 384v-64h-64v-96q0 -40 -28 -68t-68 -28t-68 28t-28 68v96h-256v64h512v0z" />
    <glyph glyph-name="uniE9E4" unicode="emoticon&#x36;" 
d="M512 960q-106 0 -199.5 -40t-163 -109.5t-109.5 -163t-40 -199.5t40 -199.5t109.5 -163t163 -109.5t199.5 -40t199.5 40t163 109.5t109.5 163t40 199.5t-40 199.5t-109.5 163t-163 109.5t-199.5 40v0zM320 704q27 0 45.5 -18.5t18.5 -45.5t-18.5 -45.5t-45.5 -18.5
t-45.5 18.5t-18.5 45.5t18.5 45.5t45.5 18.5v0zM768 320h-64v-96q0 -40 -28 -68t-68 -28t-68 28t-28 68v96h-256v64h512v-64v0zM704 576q-27 0 -45.5 18.5t-18.5 45.5t18.5 45.5t45.5 18.5t45.5 -18.5t18.5 -45.5t-18.5 -45.5t-45.5 -18.5v0z" />
    <glyph glyph-name="uniE9E5" unicode="emoticon&#x37;" 
d="M512 -64q106 0 199.5 40t163 109.5t109.5 163t40 199.5t-40 199.5t-109.5 163t-163 109.5t-199.5 40t-199.5 -40t-163 -109.5t-109.5 -163t-40 -199.5t40 -199.5t109.5 -163t163 -109.5t199.5 -40v0zM512 864q86 0 162 -32.5t132.5 -89t89 -132.5t32.5 -162t-32.5 -162
t-89 -132.5t-132.5 -89t-162 -32.5t-162 32.5t-132.5 89t-89 132.5t-32.5 162t32.5 162t89 132.5t132.5 89t162 32.5v0zM256 640q0 27 18.5 45.5t45.5 18.5t45.5 -18.5t18.5 -45.5t-18.5 -45.5t-45.5 -18.5t-45.5 18.5t-18.5 45.5v0zM640 640q0 27 18.5 45.5t45.5 18.5
t45.5 -18.5t18.5 -45.5t-18.5 -45.5t-45.5 -18.5t-45.5 18.5t-18.5 45.5v0zM320 179l-82 50q21 35 50 63.5t64 49t75.5 31.5t84.5 11t84.5 -11t75.5 -31.5t64 -49t50 -63.5l-82 -50q-29 49 -80 79t-112 30t-112 -30t-80 -79v0z" />
    <glyph glyph-name="uniE9E6" unicode="emoticon&#x38;" 
d="M512 960q-106 0 -199.5 -40t-163 -109.5t-109.5 -163t-40 -199.5t40 -199.5t109.5 -163t163 -109.5t199.5 -40t199.5 40t163 109.5t109.5 163t40 199.5t-40 199.5t-109.5 163t-163 109.5t-199.5 40v0zM704 704q27 0 45.5 -18.5t18.5 -45.5t-18.5 -45.5t-45.5 -18.5
t-45.5 18.5t-18.5 45.5t18.5 45.5t45.5 18.5v0zM320 704q27 0 45.5 -18.5t18.5 -45.5t-18.5 -45.5t-45.5 -18.5t-45.5 18.5t-18.5 45.5t18.5 45.5t45.5 18.5v0zM704 179q-29 49 -80 79t-112 30t-112 -30t-80 -79l-82 50q21 35 50 63.5t64 49t75.5 31.5t84.5 11t84.5 -11
t75.5 -31.5t64 -49t50 -63.5l-82 -50v0z" />
    <glyph glyph-name="uniE9E7" unicode="emoticon&#x39;" 
d="M512 -64q106 0 199.5 40t163 109.5t109.5 163t40 199.5t-40 199.5t-109.5 163t-163 109.5t-199.5 40t-199.5 -40t-163 -109.5t-109.5 -163t-40 -199.5t40 -199.5t109.5 -163t163 -109.5t199.5 -40v0zM512 864q86 0 162 -32.5t132.5 -89t89 -132.5t32.5 -162t-32.5 -162
t-89 -132.5t-132.5 -89t-162 -32.5t-162 32.5t-132.5 89t-89 132.5t-32.5 162t32.5 162t89 132.5t132.5 89t162 32.5v0zM543 249q52 10 98.5 27t83.5 39.5t64 50.5t42 60q-8 -63 -37 -117.5t-73 -94.5t-100.5 -63t-120.5 -23q-44 0 -85.5 11.5t-78 32.5t-66.5 51t-53 66
q27 -21 62.5 -33.5t78 -17t89.5 -2t96 12.5v0zM640 608q0 40 18.5 68t45.5 28t45.5 -28t18.5 -68t-18.5 -68t-45.5 -28t-45.5 28t-18.5 68v0zM352 589q-31 0 -56 -11t-35 -27q-2 4 -3.5 19t-1.5 20q0 23 28 39.5t68 16.5t68 -16.5t28 -39.5q0 -5 -1.5 -20t-3.5 -19
q-10 16 -35 26.5t-56 10.5v1z" />
    <glyph glyph-name="uniE9E8" unicode="emoticon&#x31;&#x30;" 
d="M512 960q-106 0 -199.5 -40t-163 -109.5t-109.5 -163t-40 -199.5t40 -199.5t109.5 -163t163 -109.5t199.5 -40t199.5 40t163 109.5t109.5 163t40 199.5t-40 199.5t-109.5 163t-163 109.5t-199.5 40v0zM704 704q27 0 45.5 -28t18.5 -68t-18.5 -68t-45.5 -28t-45.5 28
t-18.5 68t18.5 68t45.5 28v0zM352 648q45 0 73.5 -15.5t28.5 -41.5q0 -6 1.5 -25.5t-1.5 -24.5q-11 18 -39 30t-63 12t-63 -12t-39 -30q-3 5 -1.5 24.5t1.5 25.5q0 26 28.5 41.5t73.5 15.5v0zM500 128q-44 0 -85.5 11.5t-78 32.5t-66.5 51t-53 66q27 -21 62.5 -33.5t78 -17
t89.5 -2t96 12.5q52 10 98.5 27t83.5 39.5t64 50.5t42 60q-8 -63 -37 -117.5t-73 -94.5t-100.5 -63t-120.5 -23v0z" />
    <glyph glyph-name="uniE9E9" unicode="emoticon&#x31;&#x31;" 
d="M512 -64q106 0 199.5 40t163 109.5t109.5 163t40 199.5t-40 199.5t-109.5 163t-163 109.5t-199.5 40t-199.5 -40t-163 -109.5t-109.5 -163t-40 -199.5t40 -199.5t109.5 -163t163 -109.5t199.5 -40v0zM512 864q86 0 162 -32.5t132.5 -89t89 -132.5t32.5 -162t-32.5 -162
t-89 -132.5t-132.5 -89t-162 -32.5t-162 32.5t-132.5 89t-89 132.5t-32.5 162t32.5 162t89 132.5t132.5 89t162 32.5v0zM192 448v-64q0 -53 20 -99.5t55 -81.5t81.5 -55t99.5 -20h128q53 0 99.5 20t81.5 55t55 81.5t20 99.5v64h-640v0zM384 203q-20 7 -38 18.5t-34 26.5
q-27 28 -41.5 63t-14.5 73h128v-181v0zM576 192h-128v192h128v-192v0zM712 248q-16 -15 -34 -26.5t-38 -18.5v181h128q0 -38 -14.5 -73t-41.5 -63v0zM225 576v0v0q8 0 13.5 4.5t6.5 12.5q5 27 26 45t49 18t49 -18t26 -45q1 -8 6.5 -12.5t13.5 -4.5q7 0 12.5 4.5t6.5 12.5
q1 5 1.5 9.5t0.5 9.5q0 48 -34 82t-82 34t-82 -34t-34 -82q0 -5 0.5 -9.5t1.5 -9.5q1 -8 6.5 -12.5t12.5 -4.5v0zM609 576v0v0q8 0 13.5 4.5t6.5 12.5q5 27 26 45t49 18t49 -18t26 -45q1 -8 6.5 -12.5t13.5 -4.5q7 0 12.5 4.5t6.5 12.5q1 5 1.5 9.5t0.5 9.5q0 48 -34 82
t-82 34t-82 -34t-34 -82q0 -5 0.5 -9.5t1.5 -9.5q1 -8 6.5 -12.5t12.5 -4.5v0z" />
    <glyph glyph-name="uniE9EA" unicode="emoticon&#x31;&#x32;" 
d="M512 960q-106 0 -199.5 -40t-163 -109.5t-109.5 -163t-40 -199.5t40 -199.5t109.5 -163t163 -109.5t199.5 -40t199.5 40t163 109.5t109.5 163t40 199.5t-40 199.5t-109.5 163t-163 109.5t-199.5 40v0zM704 724q48 0 82 -34t34 -82q0 -5 -0.5 -9.5t-1.5 -9.5
q-1 -8 -6.5 -12.5t-12.5 -4.5q-8 0 -13.5 4.5t-6.5 12.5q-5 27 -26 40t-49 13t-49 -13t-26 -40q-1 -8 -6.5 -12.5t-13.5 -4.5v0v0q-7 0 -12.5 4.5t-6.5 12.5q-1 5 -1.5 9.5t-0.5 9.5q0 48 34 82t82 34v0zM320 724q48 0 82 -34t34 -82q0 -5 -0.5 -9.5t-1.5 -9.5
q-1 -8 -6.5 -12.5t-12.5 -4.5q-8 0 -13.5 4.5t-6.5 12.5q-5 27 -26 40t-49 13t-49 -13t-26 -40q-1 -8 -6.5 -12.5t-13.5 -4.5v0v0q-7 0 -12.5 4.5t-6.5 12.5q-1 5 -1.5 9.5t-0.5 9.5q0 48 34 82t82 34v0zM192 384h192v-248q-41 11 -76.5 34.5t-61 56t-40 72.5t-14.5 85v0z
M448 128v256h128v-256h-128v0zM640 136v248h192q0 -45 -14.5 -85t-40 -72.5t-61 -56t-76.5 -34.5v0z" />
    <glyph glyph-name="uniE9EB" unicode="cool" 
d="M512 -64q106 0 199.5 40t163 109.5t109.5 163t40 199.5t-40 199.5t-109.5 163t-163 109.5t-199.5 40t-199.5 -40t-163 -109.5t-109.5 -163t-40 -199.5t40 -199.5t109.5 -163t163 -109.5t199.5 -40v0zM512 864q86 0 162 -32.5t132.5 -89t89 -132.5t32.5 -162t-32.5 -162
t-89 -132.5t-132.5 -89t-162 -32.5t-162 32.5t-132.5 89t-89 132.5t-32.5 162t32.5 162t89 132.5t132.5 89t162 32.5v0zM800 704q13 0 22.5 -9.5t9.5 -22.5v-96q0 -26 -19 -45t-45 -19h-128q-26 0 -45 19t-19 45h-128q0 -26 -19 -45t-45 -19h-128q-26 0 -45 19t-19 45v96
q0 13 9.5 22.5t22.5 9.5h192q13 0 22.5 -9.5t9.5 -22.5v-32h128v32q0 13 9.5 22.5t22.5 9.5h192v0zM512 192q70 0 128 34t92 90l54 -33q-21 -35 -50 -63.5t-64 -49t-75.5 -31.5t-84.5 -11q-36 0 -70.5 8t-65.5 22l34 55q23 -10 49 -15.5t53 -5.5v0z" />
    <glyph glyph-name="uniE9EC" unicode="cool&#x32;" 
d="M512 960q-106 0 -199.5 -40t-163 -109.5t-109.5 -163t-40 -199.5t40 -199.5t109.5 -163t163 -109.5t199.5 -40t199.5 40t163 109.5t109.5 163t40 199.5t-40 199.5t-109.5 163t-163 109.5t-199.5 40v0zM512 128q-36 0 -70.5 8t-65.5 22l34 55q23 -10 49 -15.5t53 -5.5
q70 0 128 34t92 90l54 -33q-21 -35 -50 -63.5t-64 -49t-75.5 -31.5t-84.5 -11v0zM832 576q0 -26 -19 -45t-45 -19h-128q-26 0 -45 19t-19 45h-128q0 -26 -19 -45t-45 -19h-128q-26 0 -45 19t-19 45v96q0 13 9.5 22.5t22.5 9.5h192q13 0 22.5 -9.5t9.5 -22.5v-32h128v32
q0 13 9.5 22.5t22.5 9.5h192q13 0 22.5 -9.5t9.5 -22.5v-96v0z" />
    <glyph glyph-name="uniE9ED" unicode="angry" 
d="M512 -64q106 0 199.5 40t163 109.5t109.5 163t40 199.5t-40 199.5t-109.5 163t-163 109.5t-199.5 40t-199.5 -40t-163 -109.5t-109.5 -163t-40 -199.5t40 -199.5t109.5 -163t163 -109.5t199.5 -40v0zM512 864q86 0 162 -32.5t132.5 -89t89 -132.5t32.5 -162t-32.5 -162
t-89 -132.5t-132.5 -89t-162 -32.5t-162 32.5t-132.5 89t-89 132.5t-32.5 162t32.5 162t89 132.5t132.5 89t162 32.5v0zM704 179q-29 49 -80 79t-112 30t-112 -30t-80 -79l-82 50q21 35 50 63.5t64 49t75.5 31.5t84.5 11t84.5 -11t75.5 -31.5t64 -49t50 -63.5l-82 -50v0z
M767 680q3 -13 -3.5 -24.5t-19.5 -14.5t-28 -8.5t-29 -12.5q8 -9 12.5 -20t4.5 -24q0 -27 -18.5 -45.5t-45.5 -18.5t-45.5 18.5t-18.5 45.5v2v1q2 36 28 60t54 38q26 13 47.5 19.5t22.5 6.5q13 3 24.5 -3.5t14.5 -19.5v0zM257 680q3 13 14.5 19.5t24.5 3.5q1 0 22.5 -6.5
t47.5 -19.5q28 -14 54 -38t28 -60v-1v-2q0 -27 -18.5 -45.5t-45.5 -18.5t-45.5 18.5t-18.5 45.5q0 13 4.5 24t12.5 20q-14 7 -29 12.5t-28 8.5t-19.5 14.5t-3.5 24.5v0z" />
    <glyph glyph-name="uniE9EE" unicode="angry&#x32;" 
d="M512 960q-106 0 -199.5 -40t-163 -109.5t-109.5 -163t-40 -199.5t40 -199.5t109.5 -163t163 -109.5t199.5 -40t199.5 40t163 109.5t109.5 163t40 199.5t-40 199.5t-109.5 163t-163 109.5t-199.5 40v0zM576 579q2 36 28 60t54 38q26 13 47.5 19.5t22.5 6.5q13 3 24.5 -3.5
t14.5 -19.5t-3.5 -24.5t-19.5 -14.5t-28 -8.5t-29 -12.5q8 -9 12.5 -20t4.5 -24q0 -27 -18.5 -45.5t-45.5 -18.5t-45.5 18.5t-18.5 45.5v2v1v0zM257 680q3 13 14.5 19.5t24.5 3.5q1 0 22.5 -6.5t47.5 -19.5q28 -14 54 -38t28 -60v-1v-2q0 -27 -18.5 -45.5t-45.5 -18.5
t-45.5 18.5t-18.5 45.5q0 13 4.5 24t12.5 20q-14 7 -29 12.5t-28 8.5t-19.5 14.5t-3.5 24.5v0zM704 179q-29 49 -80 79t-112 30t-112 -30t-80 -79l-82 50q21 35 50 63.5t64 49t75.5 31.5t84.5 11t84.5 -11t75.5 -31.5t64 -49t50 -63.5l-82 -50v0z" />
    <glyph glyph-name="uniE9EF" unicode="evil" 
d="M640 512q-27 0 -45.5 18.5t-18.5 45.5v2v1q2 36 28 60t54 38q26 13 47.5 19.5t22.5 6.5q13 3 24.5 -3.5t14.5 -19.5t-3.5 -24.5t-19.5 -14.5t-28 -8.5t-29 -12.5q8 -9 12.5 -20t4.5 -24q0 -27 -18.5 -45.5t-45.5 -18.5v0zM280 641q-13 3 -19.5 14.5t-3.5 24.5t14.5 19.5
t24.5 3.5q1 0 22.5 -6.5t47.5 -19.5q28 -14 54 -38t28 -60v-1v-2q0 -27 -18.5 -45.5t-45.5 -18.5t-45.5 18.5t-18.5 45.5q0 13 4.5 24t12.5 20q-14 7 -29 12.5t-28 8.5v0zM512 224q61 0 112 30t80 79l82 -50q-21 -35 -50 -63.5t-64 -49t-75.5 -31.5t-84.5 -11t-84.5 11
t-75.5 31.5t-64 49t-50 63.5l82 50q29 -49 80 -79t112 -30v0zM1024 896q0 34 -7 66.5t-20 61.5q-25 -58 -70.5 -102t-103.5 -67q-32 25 -68.5 44.5t-75.5 33t-81 20.5t-86 7t-86 -7t-81 -20.5t-75.5 -33t-68.5 -44.5q-58 23 -103.5 67t-70.5 102q-13 -29 -20 -61.5t-7 -66.5
q0 -55 17.5 -105t49.5 -90q-32 -56 -49.5 -120t-17.5 -133q0 -106 40 -199.5t109.5 -163t163 -109.5t199.5 -40t199.5 40t163 109.5t109.5 163t40 199.5q0 69 -17.5 133t-49.5 120q32 40 49.5 90t17.5 105v0zM512 32q-86 0 -162 32.5t-132.5 89t-89 132.5t-32.5 162
t32.5 162t89 132.5t132.5 89t162 32.5t162 -32.5t132.5 -89t89 -132.5t32.5 -162t-32.5 -162t-89 -132.5t-132.5 -89t-162 -32.5v0z" />
    <glyph glyph-name="uniE9F0" unicode="evil&#x32;" 
d="M1024 896q0 34 -7 66.5t-20 61.5q-25 -58 -70.5 -102t-103.5 -67q-32 25 -68.5 44.5t-75.5 33t-81 20.5t-86 7t-86 -7t-81 -20.5t-75.5 -33t-68.5 -44.5q-58 23 -103.5 67t-70.5 102q-13 -29 -20 -61.5t-7 -66.5q0 -55 17.5 -105t49.5 -90q-32 -56 -49.5 -120t-17.5 -133
q0 -106 40 -199.5t109.5 -163t163 -109.5t199.5 -40t199.5 40t163 109.5t109.5 163t40 199.5q0 69 -17.5 133t-49.5 120q32 40 49.5 90t17.5 105v0zM576 579q2 36 28 60t54 38q26 13 47.5 19.5t22.5 6.5q13 3 24.5 -3.5t14.5 -19.5t-3.5 -24.5t-19.5 -14.5t-28 -8.5
t-29 -12.5q8 -9 12.5 -20t4.5 -24q0 -27 -18.5 -45.5t-45.5 -18.5t-45.5 18.5t-18.5 45.5v2v1v0zM257 680q3 13 14.5 19.5t24.5 3.5q1 0 22.5 -6.5t47.5 -19.5q28 -14 54 -38t28 -60v-1v-2q0 -27 -18.5 -45.5t-45.5 -18.5t-45.5 18.5t-18.5 45.5q0 13 4.5 24t12.5 20
q-14 7 -29 12.5t-28 8.5t-19.5 14.5t-3.5 24.5v0zM512 128q-44 0 -84.5 11t-75.5 31.5t-64 49t-50 63.5l82 50q29 -49 80 -79t112 -30t112 30t80 79l82 -50q-21 -35 -50 -63.5t-64 -49t-75.5 -31.5t-84.5 -11v0z" />
    <glyph glyph-name="uniE9F1" unicode="emoticon&#x31;&#x39;" 
d="M512 -64q106 0 199.5 40t163 109.5t109.5 163t40 199.5t-40 199.5t-109.5 163t-163 109.5t-199.5 40t-199.5 -40t-163 -109.5t-109.5 -163t-40 -199.5t40 -199.5t109.5 -163t163 -109.5t199.5 -40v0zM512 864q86 0 162 -32.5t132.5 -89t89 -132.5t32.5 -162t-32.5 -162
t-89 -132.5t-132.5 -89t-162 -32.5t-162 32.5t-132.5 89t-89 132.5t-32.5 162t32.5 162t89 132.5t132.5 89t162 32.5v0zM384 256q0 53 37.5 90.5t90.5 37.5t90.5 -37.5t37.5 -90.5t-37.5 -90.5t-90.5 -37.5t-90.5 37.5t-37.5 90.5v0zM640 608q0 40 18.5 68t45.5 28t45.5 -28
t18.5 -68t-18.5 -68t-45.5 -28t-45.5 28t-18.5 68v0zM256 608q0 40 18.5 68t45.5 28t45.5 -28t18.5 -68t-18.5 -68t-45.5 -28t-45.5 28t-18.5 68v0z" />
    <glyph glyph-name="uniE9F2" unicode="emoticon&#x32;&#x30;" 
d="M512 960q-106 0 -199.5 -40t-163 -109.5t-109.5 -163t-40 -199.5t40 -199.5t109.5 -163t163 -109.5t199.5 -40t199.5 40t163 109.5t109.5 163t40 199.5t-40 199.5t-109.5 163t-163 109.5t-199.5 40v0zM320 512q-27 0 -45.5 28t-18.5 68t18.5 68t45.5 28t45.5 -28
t18.5 -68t-18.5 -68t-45.5 -28v0zM512 128q-53 0 -90.5 37.5t-37.5 90.5t37.5 90.5t90.5 37.5t90.5 -37.5t37.5 -90.5t-37.5 -90.5t-90.5 -37.5v0zM704 512q-27 0 -45.5 28t-18.5 68t18.5 68t45.5 28t45.5 -28t18.5 -68t-18.5 -68t-45.5 -28v0z" />
    <glyph glyph-name="uniE9F3" unicode="baffled" 
d="M512 -64q106 0 199.5 40t163 109.5t109.5 163t40 199.5t-40 199.5t-109.5 163t-163 109.5t-199.5 40t-199.5 -40t-163 -109.5t-109.5 -163t-40 -199.5t40 -199.5t109.5 -163t163 -109.5t199.5 -40v0zM512 864q86 0 162 -32.5t132.5 -89t89 -132.5t32.5 -162t-32.5 -162
t-89 -132.5t-132.5 -89t-162 -32.5t-162 32.5t-132.5 89t-89 132.5t-32.5 162t32.5 162t89 132.5t132.5 89t162 32.5v0zM384 544q0 -13 -9.5 -22.5t-22.5 -9.5t-22.5 9.5t-9.5 22.5t9.5 22.5t22.5 9.5t22.5 -9.5t9.5 -22.5v0zM352 640q40 0 68 -28t28 -68t-28 -68t-68 -28
t-68 28t-28 68t28 68t68 28v0zM352 704q-66 0 -113 -47t-47 -113t47 -113t113 -47t113 47t47 113t-47 113t-113 47v0v0zM704 544q0 -13 -9.5 -22.5t-22.5 -9.5t-22.5 9.5t-9.5 22.5t9.5 22.5t22.5 9.5t22.5 -9.5t9.5 -22.5v0zM672 640q40 0 68 -28t28 -68t-28 -68t-68 -28
t-68 28t-28 68t28 68t68 28v0zM672 704q-66 0 -113 -47t-47 -113t47 -113t113 -47t113 47t47 113t-47 113t-113 47v0v0zM384 256h256v-64h-256v64v0z" />
    <glyph glyph-name="uniE9F4" unicode="baffled&#x32;" 
d="M384 544q0 -13 -9.5 -22.5t-22.5 -9.5t-22.5 9.5t-9.5 22.5t9.5 22.5t22.5 9.5t22.5 -9.5t9.5 -22.5v0zM704 544q0 -13 -9.5 -22.5t-22.5 -9.5t-22.5 9.5t-9.5 22.5t9.5 22.5t22.5 9.5t22.5 -9.5t9.5 -22.5v0zM512 960q-106 0 -199.5 -40t-163 -109.5t-109.5 -163
t-40 -199.5t40 -199.5t109.5 -163t163 -109.5t199.5 -40t199.5 40t163 109.5t109.5 163t40 199.5t-40 199.5t-109.5 163t-163 109.5t-199.5 40v0zM256 544q0 40 28 68t68 28t68 -28t28 -68t-28 -68t-68 -28t-68 28t-28 68v0zM640 192h-256v64h256v-64v0zM672 448
q-40 0 -68 28t-28 68t28 68t68 28t68 -28t28 -68t-28 -68t-68 -28v0z" />
    <glyph glyph-name="uniE9F5" unicode="confused" 
d="M512 -64q106 0 199.5 40t163 109.5t109.5 163t40 199.5t-40 199.5t-109.5 163t-163 109.5t-199.5 40t-199.5 -40t-163 -109.5t-109.5 -163t-40 -199.5t40 -199.5t109.5 -163t163 -109.5t199.5 -40v0zM512 864q86 0 162 -32.5t132.5 -89t89 -132.5t32.5 -162t-32.5 -162
t-89 -132.5t-132.5 -89t-162 -32.5t-162 32.5t-132.5 89t-89 132.5t-32.5 162t32.5 162t89 132.5t132.5 89t162 32.5v0zM256 640q0 27 18.5 45.5t45.5 18.5t45.5 -18.5t18.5 -45.5t-18.5 -45.5t-45.5 -18.5t-45.5 18.5t-18.5 45.5v0zM640 640q0 27 18.5 45.5t45.5 18.5
t45.5 -18.5t18.5 -45.5t-18.5 -45.5t-45.5 -18.5t-45.5 18.5t-18.5 45.5v0zM726 320h65q7 -54 -21.5 -102.5t-82.5 -68.5q-62 -22 -122 6t-83 90q-14 37 -50 54t-73 3q-34 -12 -51.5 -43.5t-9.5 -66.5h-65q-7 54 21.5 102.5t82.5 68.5q62 22 122 -6t83 -90q14 -37 50 -54
t73 -3q34 12 51.5 43.5t9.5 66.5v0z" />
    <glyph glyph-name="uniE9F6" unicode="confused&#x32;" 
d="M512 960q-106 0 -199.5 -40t-163 -109.5t-109.5 -163t-40 -199.5t40 -199.5t109.5 -163t163 -109.5t199.5 -40t199.5 40t163 109.5t109.5 163t40 199.5t-40 199.5t-109.5 163t-163 109.5t-199.5 40v0zM704 704q27 0 45.5 -18.5t18.5 -45.5t-18.5 -45.5t-45.5 -18.5
t-45.5 18.5t-18.5 45.5t18.5 45.5t45.5 18.5v0zM320 704q27 0 45.5 -18.5t18.5 -45.5t-18.5 -45.5t-45.5 -18.5t-45.5 18.5t-18.5 45.5t18.5 45.5t45.5 18.5v0zM687 149q-62 -22 -122 6t-83 90q-14 37 -50 54t-73 3q-34 -12 -51.5 -43.5t-9.5 -66.5h-65q-7 54 21.5 102.5
t82.5 68.5q62 22 122 -6t83 -90q14 -37 50 -54t73 -3q34 12 51.5 43.5t9.5 66.5h65q7 -54 -21.5 -102.5t-82.5 -68.5v0z" />
    <glyph glyph-name="uniE9F7" unicode="emoticon&#x32;&#x35;" 
d="M512 -64q106 0 199.5 40t163 109.5t109.5 163t40 199.5t-40 199.5t-109.5 163t-163 109.5t-199.5 40t-199.5 -40t-163 -109.5t-109.5 -163t-40 -199.5t40 -199.5t109.5 -163t163 -109.5t199.5 -40v0zM512 864q86 0 162 -32.5t132.5 -89t89 -132.5t32.5 -162t-32.5 -162
t-89 -132.5t-132.5 -89t-162 -32.5t-162 32.5t-132.5 89t-89 132.5t-32.5 162t32.5 162t89 132.5t132.5 89t162 32.5v0zM256 640q0 -27 18.5 -45.5t45.5 -18.5t45.5 18.5t18.5 45.5t-18.5 45.5t-45.5 18.5t-45.5 -18.5t-18.5 -45.5v0zM640 640q0 -27 18.5 -45.5t45.5 -18.5
t45.5 18.5t18.5 45.5t-18.5 45.5t-45.5 18.5t-45.5 -18.5t-18.5 -45.5v0zM384 256h256v-64h-256v64v0z" />
    <glyph glyph-name="uniE9F8" unicode="emoticon&#x32;&#x36;" 
d="M512 960q-106 0 -199.5 -40t-163 -109.5t-109.5 -163t-40 -199.5t40 -199.5t109.5 -163t163 -109.5t199.5 -40t199.5 40t163 109.5t109.5 163t40 199.5t-40 199.5t-109.5 163t-163 109.5t-199.5 40v0zM640 192h-256v64h256v-64v0zM704 704q27 0 45.5 -18.5t18.5 -45.5
t-18.5 -45.5t-45.5 -18.5t-45.5 18.5t-18.5 45.5t18.5 45.5t45.5 18.5v0zM320 704q27 0 45.5 -18.5t18.5 -45.5t-18.5 -45.5t-45.5 -18.5t-45.5 18.5t-18.5 45.5t18.5 45.5t45.5 18.5v0z" />
    <glyph glyph-name="uniE9F9" unicode="emoticon&#x32;&#x37;" 
d="M512 -64q106 0 199.5 40t163 109.5t109.5 163t40 199.5t-40 199.5t-109.5 163t-163 109.5t-199.5 40t-199.5 -40t-163 -109.5t-109.5 -163t-40 -199.5t40 -199.5t109.5 -163t163 -109.5t199.5 -40v0zM512 864q86 0 162 -32.5t132.5 -89t89 -132.5t32.5 -162t-32.5 -162
t-89 -132.5t-132.5 -89t-162 -32.5t-162 32.5t-132.5 89t-89 132.5t-32.5 162t32.5 162t89 132.5t132.5 89t162 32.5v0zM256 640q0 27 18.5 45.5t45.5 18.5t45.5 -18.5t18.5 -45.5t-18.5 -45.5t-45.5 -18.5t-45.5 18.5t-18.5 45.5v0zM640 640q0 27 18.5 45.5t45.5 18.5
t45.5 -18.5t18.5 -45.5t-18.5 -45.5t-45.5 -18.5t-45.5 18.5t-18.5 45.5v0zM676 420q-28 28 -68 28t-68 -28t-28 -68t28 -68l2 -2t2 -1q32 -30 81 -31.5t95 15.5t79 49t33 70q-46 -30 -84 -14t-72 50v0zM348 420q28 28 68 28t68 -28t28 -68t-28 -68l-2 -2t-2 -1
q-32 -30 -81 -31.5t-95 15.5t-79 49t-33 70q46 -30 84 -14t72 50v0z" />
    <glyph glyph-name="uniE9FA" unicode="emoticon&#x32;&#x38;" 
d="M512 960q-106 0 -199.5 -40t-163 -109.5t-109.5 -163t-40 -199.5t40 -199.5t109.5 -163t163 -109.5t199.5 -40t199.5 40t163 109.5t109.5 163t40 199.5t-40 199.5t-109.5 163t-163 109.5t-199.5 40v0zM704 704q27 0 45.5 -18.5t18.5 -45.5t-18.5 -45.5t-45.5 -18.5
t-45.5 18.5t-18.5 45.5t18.5 45.5t45.5 18.5v0zM320 704q27 0 45.5 -18.5t18.5 -45.5t-18.5 -45.5t-45.5 -18.5t-45.5 18.5t-18.5 45.5t18.5 45.5t45.5 18.5v0zM544 281q-1 0 -2 1l-2 2q-14 14 -21 32t-7 36q0 -18 -7 -36t-21 -32l-2 -2t-2 -1q-32 -30 -81 -31.5t-95 15.5
t-79 49t-33 70q46 -30 84 -14t72 50q28 28 68 28t68 -28q14 -14 21 -32t7 -36q0 18 7 36t21 32q28 28 68 28t68 -28q34 -34 71.5 -50t84.5 14q0 -38 -33 -70t-79 -49t-95 -15.5t-81 31.5v0z" />
    <glyph glyph-name="uniE9FB" unicode="emoticon&#x32;&#x39;" 
d="M512 -64q106 0 199.5 40t163 109.5t109.5 163t40 199.5t-40 199.5t-109.5 163t-163 109.5t-199.5 40t-199.5 -40t-163 -109.5t-109.5 -163t-40 -199.5t40 -199.5t109.5 -163t163 -109.5t199.5 -40v0zM512 864q86 0 162 -32.5t132.5 -89t89 -132.5t32.5 -162t-32.5 -162
t-89 -132.5t-132.5 -89t-162 -32.5t-162 32.5t-132.5 89t-89 132.5t-32.5 162t32.5 162t89 132.5t132.5 89t162 32.5v0zM746 358l22 -76l-437 -128l-22 76zM256 640q0 27 18.5 45.5t45.5 18.5t45.5 -18.5t18.5 -45.5t-18.5 -45.5t-45.5 -18.5t-45.5 18.5t-18.5 45.5v0z
M640 640q0 27 18.5 45.5t45.5 18.5t45.5 -18.5t18.5 -45.5t-18.5 -45.5t-45.5 -18.5t-45.5 18.5t-18.5 45.5v0z" />
    <glyph glyph-name="uniE9FC" unicode="emoticon&#x33;&#x30;" 
d="M512 960q-106 0 -199.5 -40t-163 -109.5t-109.5 -163t-40 -199.5t40 -199.5t109.5 -163t163 -109.5t199.5 -40t199.5 40t163 109.5t109.5 163t40 199.5t-40 199.5t-109.5 163t-163 109.5t-199.5 40v0zM704 704q27 0 45.5 -18.5t18.5 -45.5t-18.5 -45.5t-45.5 -18.5
t-45.5 18.5t-18.5 45.5t18.5 45.5t45.5 18.5v0zM256 640q0 27 18.5 45.5t45.5 18.5t45.5 -18.5t18.5 -45.5t-18.5 -45.5t-45.5 -18.5t-45.5 18.5t-18.5 45.5v0zM331 154l-22 76l437 128l22 -76l-437 -128v0z" />
    <glyph glyph-name="uniE9FD" unicode="emoticon&#x33;&#x31;" 
d="M512 -64q106 0 199.5 40t163 109.5t109.5 163t40 199.5t-40 199.5t-109.5 163t-163 109.5t-199.5 40t-199.5 -40t-163 -109.5t-109.5 -163t-40 -199.5t40 -199.5t109.5 -163t163 -109.5t199.5 -40v0zM512 864q86 0 162 -32.5t132.5 -89t89 -132.5t32.5 -162t-32.5 -162
t-89 -132.5t-132.5 -89t-162 -32.5t-162 32.5t-132.5 89t-89 132.5t-32.5 162t32.5 162t89 132.5t132.5 89t162 32.5v0zM640 288q0 -66 -37.5 -113t-90.5 -47t-90.5 47t-37.5 113t37.5 113t90.5 47t90.5 -47t37.5 -113v0zM416 620q-6 0 -12 2.5t-11 6.5q-14 15 -41 15
t-41 -15q-10 -9 -23 -9t-23 9q-9 10 -9 23t9 23q34 33 87 33t87 -33q9 -10 9 -23t-9 -23q-5 -4 -11 -6.5t-12 -2.5v0zM736 620q-6 0 -12 2.5t-11 6.5q-14 15 -41 15t-41 -15q-10 -9 -23 -9t-23 9q-9 10 -9 23t9 23q34 33 87 33t87 -33q9 -10 9 -23t-9 -23q-5 -4 -11 -6.5
t-12 -2.5v0z" />
    <glyph glyph-name="uniE9FE" unicode="emoticon&#x33;&#x32;" 
d="M512 960q-106 0 -199.5 -40t-163 -109.5t-109.5 -163t-40 -199.5t40 -199.5t109.5 -163t163 -109.5t199.5 -40t199.5 40t163 109.5t109.5 163t40 199.5t-40 199.5t-109.5 163t-163 109.5t-199.5 40v0zM311 629q-10 -9 -23 -9t-23 9q-9 10 -9 23t9 23q34 33 87 33t87 -33
q9 -10 9 -23t-9 -23q-5 -4 -11 -6.5t-12 -2.5t-12 2.5t-11 6.5q-14 15 -41 15t-41 -15v0zM512 128q-53 0 -90.5 47t-37.5 113t37.5 113t90.5 47t90.5 -47t37.5 -113t-37.5 -113t-90.5 -47v0zM759 629q-5 -4 -11 -6.5t-12 -2.5t-12 2.5t-11 6.5q-14 15 -41 15t-41 -15
q-10 -9 -23 -9t-23 9q-9 10 -9 23t9 23q34 33 87 33t87 -33q9 -10 9 -23t-9 -23v0z" />
    <glyph glyph-name="uniE9FF" unicode="emoticon&#x33;&#x33;" 
d="M366 677q-26 13 -47.5 19.5t-22.5 6.5q-13 3 -24.5 -3.5t-14.5 -19.5t3.5 -24.5t19.5 -14.5t28 -8.5t29 -12.5q-8 -9 -12.5 -20t-4.5 -24q0 -27 18.5 -45.5t45.5 -18.5t45.5 18.5t18.5 45.5v2v1q-2 36 -28 60t-54 38v0zM512 960q-106 0 -199.5 -40t-163 -109.5
t-109.5 -163t-40 -199.5t40 -199.5t109.5 -163t163 -109.5t199.5 -40t199.5 40t163 109.5t109.5 163t40 199.5t-40 199.5t-109.5 163t-163 109.5t-199.5 40v0zM236 136q9 -4 17.5 -6t18.5 -2h480q10 0 18.5 2t17.5 6q-56 -48 -126.5 -76t-149.5 -28t-149.5 28t-126.5 76v0z
M256 208v96q0 7 4.5 11.5t11.5 4.5h112v-128h-112q-7 0 -11.5 4.5t-4.5 11.5v0zM448 192v128h128v-128h-128v0zM640 192v128h112q7 0 11.5 -4.5t4.5 -11.5v-96q0 -7 -4.5 -11.5t-11.5 -4.5h-112v0zM824 172q4 9 6 17.5t2 18.5v96q0 33 -23.5 56.5t-56.5 23.5h-480
q-33 0 -56.5 -23.5t-23.5 -56.5v-96q0 -10 2 -18.5t6 -17.5q-48 56 -76 126.5t-28 149.5q0 86 32.5 162t89 132.5t132.5 89t162 32.5t162 -32.5t132.5 -89t89 -132.5t32.5 -162q0 -79 -28 -149.5t-76 -126.5v0zM728 703q-1 0 -22.5 -6.5t-47.5 -19.5q-28 -14 -54 -38
t-28 -60v-1v-2q0 -27 18.5 -45.5t45.5 -18.5t45.5 18.5t18.5 45.5q0 13 -4.5 24t-12.5 20q14 7 29 12.5t28 8.5t19.5 14.5t3.5 24.5t-14.5 19.5t-24.5 3.5v0z" />
    <glyph glyph-name="uniEA00" unicode="emoticon&#x33;&#x34;" 
d="M256 304v-96q0 -7 4.5 -11.5t11.5 -4.5h112v128h-112q-7 0 -11.5 -4.5t-4.5 -11.5v0zM448 320h128v-128h-128v128v0zM752 320h-112v-128h112q7 0 11.5 4.5t4.5 11.5v96q0 7 -4.5 11.5t-11.5 4.5v0zM512 960q-106 0 -199.5 -40t-163 -109.5t-109.5 -163t-40 -199.5
t40 -199.5t109.5 -163t163 -109.5t199.5 -40t199.5 40t163 109.5t109.5 163t40 199.5t-40 199.5t-109.5 163t-163 109.5t-199.5 40v0zM576 579q2 36 28 60t54 38q26 13 47.5 19.5t22.5 6.5q13 3 24.5 -3.5t14.5 -19.5t-3.5 -24.5t-19.5 -14.5t-28 -8.5t-29 -12.5
q8 -9 12.5 -20t4.5 -24q0 -27 -18.5 -45.5t-45.5 -18.5t-45.5 18.5t-18.5 45.5v2v1v0zM257 680q3 13 14.5 19.5t24.5 3.5q1 0 22.5 -6.5t47.5 -19.5q28 -14 54 -38t28 -60v-1v-2q0 -27 -18.5 -45.5t-45.5 -18.5t-45.5 18.5t-18.5 45.5q0 13 4.5 24t12.5 20q-14 7 -29 12.5
t-28 8.5t-19.5 14.5t-3.5 24.5v0zM832 208q0 -33 -23.5 -56.5t-56.5 -23.5h-480q-33 0 -56.5 23.5t-23.5 56.5v96q0 33 23.5 56.5t56.5 23.5h480q33 0 56.5 -23.5t23.5 -56.5v-96v0z" />
    <glyph glyph-name="uniEA01" unicode="crying" 
d="M512 -64q106 0 199.5 40t163 109.5t109.5 163t40 199.5t-40 199.5t-109.5 163t-163 109.5t-199.5 40t-199.5 -40t-163 -109.5t-109.5 -163t-40 -199.5t40 -199.5t109.5 -163t163 -109.5t199.5 -40v0zM512 864q86 0 162 -32.5t132.5 -89t89 -132.5t32.5 -162t-32.5 -162
t-89 -132.5t-132.5 -89t-162 -32.5t-162 32.5t-132.5 89t-89 132.5t-32.5 162t32.5 162t89 132.5t132.5 89t162 32.5v0zM800 576h-128q-13 0 -22.5 9.5t-9.5 22.5t9.5 22.5t22.5 9.5h128q13 0 22.5 -9.5t9.5 -22.5t-9.5 -22.5t-22.5 -9.5v0zM352 576h-128q-13 0 -22.5 9.5
t-9.5 22.5t9.5 22.5t22.5 9.5h128q13 0 22.5 -9.5t9.5 -22.5t-9.5 -22.5t-22.5 -9.5v0zM608 104q-6 0 -12 2.5t-11 6.5q-3 4 -21.5 9.5t-51.5 5.5t-51.5 -5.5t-21.5 -9.5q-10 -9 -23 -9t-23 9q-9 10 -9 23t9 23q23 22 61.5 27.5t57.5 5.5t57.5 -5.5t61.5 -27.5q9 -10 9 -23
t-9 -23q-5 -4 -11 -6.5t-12 -2.5v0zM736 384q-13 0 -22.5 9.5t-9.5 22.5v64q0 13 9.5 22.5t22.5 9.5t22.5 -9.5t9.5 -22.5v-64q0 -13 -9.5 -22.5t-22.5 -9.5v0zM736 192q-13 0 -22.5 9.5t-9.5 22.5v64q0 13 9.5 22.5t22.5 9.5t22.5 -9.5t9.5 -22.5v-64q0 -13 -9.5 -22.5
t-22.5 -9.5v0zM288 384q-13 0 -22.5 9.5t-9.5 22.5v64q0 13 9.5 22.5t22.5 9.5t22.5 -9.5t9.5 -22.5v-64q0 -13 -9.5 -22.5t-22.5 -9.5v0zM288 192q-13 0 -22.5 9.5t-9.5 22.5v64q0 13 9.5 22.5t22.5 9.5t22.5 -9.5t9.5 -22.5v-64q0 -13 -9.5 -22.5t-22.5 -9.5v0z" />
    <glyph glyph-name="uniEA02" unicode="crying&#x32;" 
d="M512 960q-106 0 -199.5 -40t-163 -109.5t-109.5 -163t-40 -199.5t40 -199.5t109.5 -163t163 -109.5t199.5 -40t199.5 40t163 109.5t109.5 163t40 199.5t-40 199.5t-109.5 163t-163 109.5t-199.5 40v0zM320 224q0 -13 -9.5 -22.5t-22.5 -9.5t-22.5 9.5t-9.5 22.5v64
q0 13 9.5 22.5t22.5 9.5t22.5 -9.5t9.5 -22.5v-64v0zM320 416q0 -13 -9.5 -22.5t-22.5 -9.5t-22.5 9.5t-9.5 22.5v64q0 13 9.5 22.5t22.5 9.5t22.5 -9.5t9.5 -22.5v-64v0zM352 576h-128q-13 0 -22.5 9.5t-9.5 22.5t9.5 22.5t22.5 9.5h128q13 0 22.5 -9.5t9.5 -22.5
t-9.5 -22.5t-22.5 -9.5v0zM631 113q-5 -4 -11 -6.5t-12 -2.5t-12 2.5t-11 6.5q-3 4 -21.5 9.5t-51.5 5.5t-51.5 -5.5t-21.5 -9.5q-10 -9 -23 -9t-23 9q-9 10 -9 23t9 23q23 22 61.5 27.5t57.5 5.5t57.5 -5.5t61.5 -27.5q9 -10 9 -23t-9 -23v0zM768 224q0 -13 -9.5 -22.5
t-22.5 -9.5t-22.5 9.5t-9.5 22.5v64q0 13 9.5 22.5t22.5 9.5t22.5 -9.5t9.5 -22.5v-64v0zM768 416q0 -13 -9.5 -22.5t-22.5 -9.5t-22.5 9.5t-9.5 22.5v64q0 13 9.5 22.5t22.5 9.5t22.5 -9.5t9.5 -22.5v-64v0zM800 576h-128q-13 0 -22.5 9.5t-9.5 22.5t9.5 22.5t22.5 9.5h128
q13 0 22.5 -9.5t9.5 -22.5t-9.5 -22.5t-22.5 -9.5v0z" />
    <glyph glyph-name="uniEA03" unicode="finger" 
d="M960 352v160q0 40 -28 68t-68 28q-13 0 -25 -3t-22 -9q-13 20 -34.5 32t-46.5 12q-18 0 -34.5 -6.5t-29.5 -18.5q-13 12 -29.5 18.5t-34.5 6.5q-8 0 -16 -1.5t-16 -3.5v229q0 40 -28 68t-68 28t-68 -28t-28 -68v-395l-176 94q-11 6 -23 9.5t-25 3.5q-40 0 -68 -28
t-28 -68q0 -20 7.5 -38t21.5 -31q1 0 1 -0.5v-0.5l239 -218h-45q-13 0 -22.5 -9.5t-9.5 -22.5v-192q0 -13 9.5 -22.5t22.5 -9.5h640q13 0 22.5 9.5t9.5 22.5v192q0 13 -9.5 22.5t-22.5 9.5h-44l73 146q1 3 2 6.5t1 7.5v0zM896 96q0 -13 -9.5 -22.5t-22.5 -9.5t-22.5 9.5
t-9.5 22.5t9.5 22.5t22.5 9.5t22.5 -9.5t9.5 -22.5v0zM896 360l-84 -168h-384l-290 265q-5 5 -7.5 10.5t-2.5 12.5q0 13 9.5 22.5t22.5 9.5q4 0 8 -1t7 -3q1 0 1.5 -0.5l0.5 -0.5l224 -119q7 -4 15.5 -4t15.5 5q8 4 12 11.5t4 15.5v448q0 13 9.5 22.5t22.5 9.5t22.5 -9.5
t9.5 -22.5v-320q0 -13 9.5 -22.5t22.5 -9.5t22.5 9.5t9.5 22.5t9.5 22.5t22.5 9.5t22.5 -9.5t9.5 -22.5t9.5 -22.5t22.5 -9.5t22.5 9.5t9.5 22.5t9.5 22.5t22.5 9.5t22.5 -9.5t9.5 -22.5v-32q0 -13 9.5 -22.5t22.5 -9.5t22.5 9.5t9.5 22.5t9.5 22.5t22.5 9.5t22.5 -9.5
t9.5 -22.5v-152v0z" />
    <glyph glyph-name="uniEA04" unicode="finger&#x32;" 
d="M416 0h160q40 0 68 28t28 68q0 13 -3 25t-9 22q20 13 32 34.5t12 46.5q0 18 -6.5 34.5t-18.5 29.5q12 13 18.5 29.5t6.5 34.5q0 8 -1.5 16t-3.5 16h229q40 0 68 28t28 68t-28 68t-68 28h-395l94 176q6 11 9.5 23t3.5 25q0 40 -28 68t-68 28q-20 0 -38 -7.5t-31 -21.5
q0 -1 -0.5 -1h-0.5l-218 -239v45q0 13 -9.5 22.5t-22.5 9.5h-192q-13 0 -22.5 -9.5t-9.5 -22.5v-640q0 -13 9.5 -22.5t22.5 -9.5h192q13 0 22.5 9.5t9.5 22.5v44l146 -73q3 -1 6.5 -2t7.5 -1v0zM160 64q-13 0 -22.5 9.5t-9.5 22.5t9.5 22.5t22.5 9.5t22.5 -9.5t9.5 -22.5
t-9.5 -22.5t-22.5 -9.5v0zM424 64l-168 84v384l265 290q5 5 10.5 7.5t12.5 2.5q13 0 22.5 -9.5t9.5 -22.5q0 -4 -1 -8t-3 -7q0 -1 -0.5 -1.5l-0.5 -0.5l-119 -224q-4 -7 -4 -15.5t5 -15.5q4 -8 11.5 -12t15.5 -4h448q13 0 22.5 -9.5t9.5 -22.5t-9.5 -22.5t-22.5 -9.5h-320
q-13 0 -22.5 -9.5t-9.5 -22.5t9.5 -22.5t22.5 -9.5t22.5 -9.5t9.5 -22.5t-9.5 -22.5t-22.5 -9.5t-22.5 -9.5t-9.5 -22.5t9.5 -22.5t22.5 -9.5t22.5 -9.5t9.5 -22.5t-9.5 -22.5t-22.5 -9.5h-32q-13 0 -22.5 -9.5t-9.5 -22.5t9.5 -22.5t22.5 -9.5t22.5 -9.5t9.5 -22.5
t-9.5 -22.5t-22.5 -9.5h-152v0z" />
    <glyph glyph-name="uniEA05" unicode="finger&#x33;" 
d="M960 544v-160q0 -40 -28 -68t-68 -28q-13 0 -25 3t-22 9q-13 -20 -34.5 -32t-46.5 -12q-18 0 -34.5 6.5t-29.5 18.5q-13 -12 -29.5 -18.5t-34.5 -6.5q-8 0 -16 1.5t-16 3.5v-229q0 -40 -28 -68t-68 -28t-68 28t-28 68v395l-176 -94q-11 -6 -23 -9.5t-25 -3.5
q-40 0 -68 28t-28 68q0 20 7.5 38t21.5 31q1 0 1 0.5v0.5l239 218h-45q-13 0 -22.5 9.5t-9.5 22.5v192q0 13 9.5 22.5t22.5 9.5h640q13 0 22.5 -9.5t9.5 -22.5v-192q0 -13 -9.5 -22.5t-22.5 -9.5h-44l73 -146q1 -3 2 -6.5t1 -7.5v0zM896 800q0 13 -9.5 22.5t-22.5 9.5
t-22.5 -9.5t-9.5 -22.5t9.5 -22.5t22.5 -9.5t22.5 9.5t9.5 22.5v0zM896 536l-84 168h-384l-290 -265q-5 -5 -7.5 -10.5t-2.5 -12.5q0 -13 9.5 -22.5t22.5 -9.5q4 0 8 1t7 3q1 0 1.5 0.5l0.5 0.5l224 119q7 4 15.5 4t15.5 -5q8 -4 12 -11.5t4 -15.5v-448q0 -13 9.5 -22.5
t22.5 -9.5t22.5 9.5t9.5 22.5v320q0 13 9.5 22.5t22.5 9.5t22.5 -9.5t9.5 -22.5t9.5 -22.5t22.5 -9.5t22.5 9.5t9.5 22.5t9.5 22.5t22.5 9.5t22.5 -9.5t9.5 -22.5t9.5 -22.5t22.5 -9.5t22.5 9.5t9.5 22.5v32q0 13 9.5 22.5t22.5 9.5t22.5 -9.5t9.5 -22.5t9.5 -22.5
t22.5 -9.5t22.5 9.5t9.5 22.5v152v0z" />
    <glyph glyph-name="uniEA06" unicode="finger&#x34;" 
d="M608 0h-160q-40 0 -68 28t-28 68q0 13 3 25t9 22q-20 13 -32 34.5t-12 46.5q0 18 6.5 34.5t18.5 29.5q-12 13 -18.5 29.5t-6.5 34.5q0 8 1.5 16t3.5 16h-229q-40 0 -68 28t-28 68t28 68t68 28h395l-94 176q-6 11 -9.5 23t-3.5 25q0 40 28 68t68 28q20 0 38 -7.5t31 -21.5
q0 -1 0.5 -1h0.5l218 -239v45q0 13 9.5 22.5t22.5 9.5h192q13 0 22.5 -9.5t9.5 -22.5v-640q0 -13 -9.5 -22.5t-22.5 -9.5h-192q-13 0 -22.5 9.5t-9.5 22.5v44l-146 -73q-3 -1 -6.5 -2t-7.5 -1v0zM864 64q13 0 22.5 9.5t9.5 22.5t-9.5 22.5t-22.5 9.5t-22.5 -9.5t-9.5 -22.5
t9.5 -22.5t22.5 -9.5v0zM600 64l168 84v384l-265 290q-5 5 -10.5 7.5t-12.5 2.5q-13 0 -22.5 -9.5t-9.5 -22.5q0 -4 1 -8t3 -7q0 -1 0.5 -1.5l0.5 -0.5l119 -224q4 -7 4 -15.5t-5 -15.5q-4 -8 -11.5 -12t-15.5 -4h-448q-13 0 -22.5 -9.5t-9.5 -22.5t9.5 -22.5t22.5 -9.5h320
q13 0 22.5 -9.5t9.5 -22.5t-9.5 -22.5t-22.5 -9.5t-22.5 -9.5t-9.5 -22.5t9.5 -22.5t22.5 -9.5t22.5 -9.5t9.5 -22.5t-9.5 -22.5t-22.5 -9.5t-22.5 -9.5t-9.5 -22.5t9.5 -22.5t22.5 -9.5h32q13 0 22.5 -9.5t9.5 -22.5t-9.5 -22.5t-22.5 -9.5t-22.5 -9.5t-9.5 -22.5
t9.5 -22.5t22.5 -9.5h152v0z" />
    <glyph glyph-name="uniEA07" unicode="sign" 
d="M512 867l429 -855h-858l429 855v0zM512 960q-17 0 -32.5 -11t-28.5 -34l-437 -871q-25 -44 -6.5 -76t69.5 -32h870q51 0 69.5 32t-6.5 76v0l-437 871q-13 23 -28.5 34t-32.5 11v0v0zM576 128q0 -27 -18.5 -45.5t-45.5 -18.5t-45.5 18.5t-18.5 45.5t18.5 45.5t45.5 18.5
t45.5 -18.5t18.5 -45.5v0zM512 256q-27 0 -45.5 18.5t-18.5 45.5v192q0 27 18.5 45.5t45.5 18.5t45.5 -18.5t18.5 -45.5v-192q0 -27 -18.5 -45.5t-45.5 -18.5v0z" />
    <glyph glyph-name="uniEA08" unicode="notification" 
d="M512 864q-42 0 -82 -8t-77.5 -23.5t-71.5 -38t-63 -52.5q-30 -29 -52.5 -63t-38 -71.5t-23.5 -77.5t-8 -82t8 -82t23.5 -77.5t38 -71.5t52.5 -63q29 -30 63 -52.5t71.5 -38t77.5 -23.5t82 -8t82 8t77.5 23.5t71.5 38t63 52.5q30 29 52.5 63t38 71.5t23.5 77.5t8 82t-8 82
t-23.5 77.5t-38 71.5t-52.5 63q-29 30 -63 52.5t-71.5 38t-77.5 23.5t-82 8v0zM512 960v0q106 0 199.5 -40t163 -109.5t109.5 -163t40 -199.5t-40 -199.5t-109.5 -163t-163 -109.5t-199.5 -40t-199.5 40t-163 109.5t-109.5 163t-40 199.5t40 199.5t109.5 163t163 109.5
t199.5 40v0zM448 256h128v-128h-128v128zM448 768h128v-384h-128v384z" />
    <glyph glyph-name="uniEA09" unicode="help" 
d="M448 256h128v-128h-128v128zM704 704q27 0 45.5 -18.5t18.5 -45.5v-192l-192 -128h-128v64l192 128v64h-320v128h384v0zM512 864q-42 0 -82 -8t-77.5 -23.5t-71.5 -38t-63 -52.5q-30 -29 -52.5 -63t-38 -71.5t-23.5 -77.5t-8 -82t8 -82t23.5 -77.5t38 -71.5t52.5 -63
q29 -30 63 -52.5t71.5 -38t77.5 -23.5t82 -8t82 8t77.5 23.5t71.5 38t63 52.5q30 29 52.5 63t38 71.5t23.5 77.5t8 82t-8 82t-23.5 77.5t-38 71.5t-52.5 63q-29 30 -63 52.5t-71.5 38t-77.5 23.5t-82 8v0zM512 960v0q106 0 199.5 -40t163 -109.5t109.5 -163t40 -199.5
t-40 -199.5t-109.5 -163t-163 -109.5t-199.5 -40t-199.5 40t-163 109.5t-109.5 163t-40 199.5t40 199.5t109.5 163t163 109.5t199.5 40v0z" />
    <glyph glyph-name="uniEA0A" unicode="add" 
d="M992 576h-352v352q0 13 -9.5 22.5t-22.5 9.5h-192q-13 0 -22.5 -9.5t-9.5 -22.5v-352h-352q-13 0 -22.5 -9.5t-9.5 -22.5v-192q0 -13 9.5 -22.5t22.5 -9.5h352v-352q0 -13 9.5 -22.5t22.5 -9.5h192q13 0 22.5 9.5t9.5 22.5v352h352q13 0 22.5 9.5t9.5 22.5v192
q0 13 -9.5 22.5t-22.5 9.5v0z" />
    <glyph glyph-name="uniEA0B" unicode="minus" 
d="M0 544v-192q0 -13 9.5 -22.5t22.5 -9.5h960q13 0 22.5 9.5t9.5 22.5v192q0 13 -9.5 22.5t-22.5 9.5h-960q-13 0 -22.5 -9.5t-9.5 -22.5v0z" />
    <glyph glyph-name="uniEA0C" unicode="information" 
d="M448 656q0 20 14 34t34 14h32q20 0 34 -14t14 -34v-32q0 -20 -14 -34t-34 -14h-32q-20 0 -34 14t-14 34v32v0zM640 192h-256v64h64v192h-64v64h192v-256h64v-64zM512 960q-106 0 -199.5 -40t-163 -109.5t-109.5 -163t-40 -199.5t40 -199.5t109.5 -163t163 -109.5
t199.5 -40t199.5 40t163 109.5t109.5 163t40 199.5t-40 199.5t-109.5 163t-163 109.5t-199.5 40v0zM512 32q-86 0 -162 32.5t-132.5 89t-89 132.5t-32.5 162t32.5 162t89 132.5t132.5 89t162 32.5t162 -32.5t132.5 -89t89 -132.5t32.5 -162t-32.5 -162t-89 -132.5
t-132.5 -89t-162 -32.5v0z" />
    <glyph glyph-name="uniEA0D" unicode="close" 
d="M512 960q-106 0 -199.5 -40t-163 -109.5t-109.5 -163t-40 -199.5t40 -199.5t109.5 -163t163 -109.5t199.5 -40t199.5 40t163 109.5t109.5 163t40 199.5t-40 199.5t-109.5 163t-163 109.5t-199.5 40v0zM512 32q-86 0 -162 32.5t-132.5 89t-89 132.5t-32.5 162t32.5 162
t89 132.5t132.5 89t162 32.5t162 -32.5t132.5 -89t89 -132.5t32.5 -162t-32.5 -162t-89 -132.5t-132.5 -89t-162 -32.5v0zM672 704l-160 -160l-160 160l-96 -96l160 -160l-160 -160l96 -96l160 160l160 -160l96 96l-160 160l160 160z" />
    <glyph glyph-name="uniEA0E" unicode="blocked" 
d="M874 810q-36 36 -78 64t-88 47t-95.5 29t-100.5 10t-100.5 -10t-95.5 -29t-88 -47t-78 -64t-64 -78t-47 -88t-29 -95.5t-10 -100.5t10 -100.5t29 -95.5t47 -88t64 -78t78 -64t88 -47t95.5 -29t100.5 -10t100.5 10t95.5 29t88 47t78 64t64 78t47 88t29 95.5t10 100.5
t-10 100.5t-29 95.5t-47 88t-64 78v0zM896 448q0 -62 -19 -118.5t-52 -103.5l-535 535q47 33 103.5 52t118.5 19q79 0 149 -30t122.5 -82.5t82.5 -122.5t30 -149v0zM128 448q0 62 19 118.5t52 103.5l535 -535q-47 -33 -103.5 -52t-118.5 -19q-79 0 -149 30t-122.5 82.5
t-82.5 122.5t-30 149v0z" />
    <glyph glyph-name="uniEA0F" unicode="cross" 
d="M1015 137v0v0l-311 311l311 311v0v0q2 2 4 5t3 6q3 9 1.5 18t-8.5 16l-147 147q-7 7 -16 8.5t-18 -1.5q-3 -1 -6 -3t-5 -4v0v0l-311 -311l-311 311v0v0q-2 2 -5 4t-6 3q-9 3 -18 1.5t-16 -8.5l-147 -147q-7 -7 -8.5 -16t1.5 -18q1 -3 3 -6t4 -5v0v0l311 -311l-311 -311v0
v0q-2 -2 -4 -5t-3 -6q-3 -9 -1.5 -18t8.5 -16l147 -147q7 -7 16 -8.5t18 1.5q3 1 6 3t5 4v0v0l311 311l311 -311v0v0q2 -2 5 -4t6 -3q9 -3 18 -1.5t16 8.5l147 147q7 7 8.5 16t-1.5 18q-1 3 -3 6t-4 5v0z" />
    <glyph glyph-name="uniEA10" unicode="checkmark" 
d="M864 832l-480 -480l-224 224l-160 -160l384 -384l640 640z" />
    <glyph glyph-name="uniEA11" unicode="checkmark&#x32;" 
d="M397 42l-397 392l197 194l200 -197l430 423l197 -195l-627 -617v0zM108 434l289 -285l519 510l-89 88l-430 -423l-200 198l-89 -88v0z" />
    <glyph glyph-name="uniEA12" unicode="spelling" 
d="M128 704h128v-192h64v384q0 26 -19 45t-45 19h-128q-26 0 -45 -19t-19 -45v-384h64v192v0zM128 896h128v-128h-128v128v0zM960 896v64h-192q-26 0 -45 -19t-19 -45v-320q0 -26 19 -45t45 -19h192v64h-192v320h192v0zM640 800v96q0 26 -19 45t-45 19h-192v-448h192
q26 0 45 19t19 45v96q0 26 -9 45t-35 19q26 0 35 19t9 45v0zM576 576h-128v128h128v-128v0zM576 768h-128v128h128v-128v0zM832 384l-416 -448l-224 288l82 70l142 -148l352 302z" />
    <glyph glyph-name="uniEA13" unicode="enter" 
d="M384 448h-320v128h320v128l192 -192l-192 -192v128zM1024 960v-832l-384 -192v192h-384v256h64v-192h320v576l256 128h-576v-256h-64v320h768z" />
    <glyph glyph-name="uniEA14" unicode="exit" 
d="M768 320v128h-320v128h320v128l192 -192zM704 384v-256h-320v-192l-384 192v832h704v-320h-64v256h-512l256 -128v-576h256v192h64z" />
    <glyph glyph-name="uniEA15" unicode="player" 
d="M512 960q-106 0 -199.5 -40t-163 -109.5t-109.5 -163t-40 -199.5t40 -199.5t109.5 -163t163 -109.5t199.5 -40t199.5 40t163 109.5t109.5 163t40 199.5t-40 199.5t-109.5 163t-163 109.5t-199.5 40v0zM512 32q-86 0 -162 32.5t-132.5 89t-89 132.5t-32.5 162t32.5 162
t89 132.5t132.5 89t162 32.5t162 -32.5t132.5 -89t89 -132.5t32.5 -162t-32.5 -162t-89 -132.5t-132.5 -89t-162 -32.5v0zM384 672l384 -224l-384 -224v448z" />
    <glyph glyph-name="uniEA16" unicode="player&#x32;" 
d="M512 960q-106 0 -199.5 -40t-163 -109.5t-109.5 -163t-40 -199.5t40 -199.5t109.5 -163t163 -109.5t199.5 -40t199.5 40t163 109.5t109.5 163t40 199.5t-40 199.5t-109.5 163t-163 109.5t-199.5 40v0zM512 32q-86 0 -162 32.5t-132.5 89t-89 132.5t-32.5 162t32.5 162
t89 132.5t132.5 89t162 32.5t162 -32.5t132.5 -89t89 -132.5t32.5 -162t-32.5 -162t-89 -132.5t-132.5 -89t-162 -32.5v0zM320 640h128v-384h-128v384zM576 640h128v-384h-128v384z" />
    <glyph glyph-name="uniEA17" unicode="player&#x33;" 
d="M512 960q-106 0 -199.5 -40t-163 -109.5t-109.5 -163t-40 -199.5t40 -199.5t109.5 -163t163 -109.5t199.5 -40t199.5 40t163 109.5t109.5 163t40 199.5t-40 199.5t-109.5 163t-163 109.5t-199.5 40v0zM512 32q-86 0 -162 32.5t-132.5 89t-89 132.5t-32.5 162t32.5 162
t89 132.5t132.5 89t162 32.5t162 -32.5t132.5 -89t89 -132.5t32.5 -162t-32.5 -162t-89 -132.5t-132.5 -89t-162 -32.5v0zM320 640h384v-384h-384v384z" />
    <glyph glyph-name="uniEA18" unicode="previous" 
d="M512 960q-106 0 -199.5 -40t-163 -109.5t-109.5 -163t-40 -199.5t40 -199.5t109.5 -163t163 -109.5t199.5 -40t199.5 40t163 109.5t109.5 163t40 199.5t-40 199.5t-109.5 163t-163 109.5t-199.5 40v0zM512 32q-86 0 -162 32.5t-132.5 89t-89 132.5t-32.5 162t32.5 162
t89 132.5t132.5 89t162 32.5t162 -32.5t132.5 -89t89 -132.5t32.5 -162t-32.5 -162t-89 -132.5t-132.5 -89t-162 -32.5v0zM448 448l256 192v-384zM320 640h128v-384h-128v384v0z" />
    <glyph glyph-name="uniEA19" unicode="next" 
d="M512 960q106 0 199.5 -40t163 -109.5t109.5 -163t40 -199.5t-40 -199.5t-109.5 -163t-163 -109.5t-199.5 -40t-199.5 40t-163 109.5t-109.5 163t-40 199.5t40 199.5t109.5 163t163 109.5t199.5 40v0zM512 32q86 0 162 32.5t132.5 89t89 132.5t32.5 162t-32.5 162
t-89 132.5t-132.5 89t-162 32.5t-162 -32.5t-132.5 -89t-89 -132.5t-32.5 -162t32.5 -162t89 -132.5t132.5 -89t162 -32.5v0zM576 448l-256 192v-384zM704 640h-128v-384h128v384v0z" />
    <glyph glyph-name="uniEA1A" unicode="backward" 
d="M512 -64q106 0 199.5 40t163 109.5t109.5 163t40 199.5t-40 199.5t-109.5 163t-163 109.5t-199.5 40t-199.5 -40t-163 -109.5t-109.5 -163t-40 -199.5t40 -199.5t109.5 -163t163 -109.5t199.5 -40v0zM512 864q86 0 162 -32.5t132.5 -89t89 -132.5t32.5 -162t-32.5 -162
t-89 -132.5t-132.5 -89t-162 -32.5t-162 32.5t-132.5 89t-89 132.5t-32.5 162t32.5 162t89 132.5t132.5 89t162 32.5v0zM704 288l-224 160l224 160v-320zM448 288l-224 160l224 160v-320z" />
    <glyph glyph-name="uniEA1B" unicode="forward&#x32;" 
d="M512 960q-106 0 -199.5 -40t-163 -109.5t-109.5 -163t-40 -199.5t40 -199.5t109.5 -163t163 -109.5t199.5 -40t199.5 40t163 109.5t109.5 163t40 199.5t-40 199.5t-109.5 163t-163 109.5t-199.5 40v0zM512 32q-86 0 -162 32.5t-132.5 89t-89 132.5t-32.5 162t32.5 162
t89 132.5t132.5 89t162 32.5t162 -32.5t132.5 -89t89 -132.5t32.5 -162t-32.5 -162t-89 -132.5t-132.5 -89t-162 -32.5v0zM320 608l224 -160l-224 -160v320zM576 608l224 -160l-224 -160v320z" />
    <glyph glyph-name="uniEA1C" unicode="player&#x38;" 
d="M192 832l640 -384l-640 -384v768z" />
    <glyph glyph-name="uniEA1D" unicode="player&#x39;" 
d="M128 832h320v-768h-320v768zM576 832h320v-768h-320v768z" />
    <glyph glyph-name="uniEA1E" unicode="player&#x31;&#x30;" 
d="M128 832h768v-768h-768v768z" />
    <glyph glyph-name="uniEA1F" unicode="backward&#x32;" 
d="M576 800v-320l320 320v-704l-320 320v-320l-352 352z" />
    <glyph glyph-name="uniEA20" unicode="forward&#x33;" 
d="M512 96v320l-320 -320v704l320 -320v320l352 -352z" />
    <glyph glyph-name="uniEA21" unicode="first" 
d="M128 64v768h128v-352l320 320v-320l320 320v-704l-320 320v-320l-320 320v-352h-128z" />
    <glyph glyph-name="uniEA22" unicode="last" 
d="M896 832v-768h-128v352l-320 -320v320l-320 -320v704l320 -320v320l320 -320v352h128z" />
    <glyph glyph-name="uniEA23" unicode="previous&#x32;" 
d="M256 64v768h128v-352l320 320v-704l-320 320v-352h-128z" />
    <glyph glyph-name="uniEA24" unicode="next&#x32;" 
d="M768 832v-768h-128v352l-320 -320v704l320 -320v352h128z" />
    <glyph glyph-name="uniEA25" unicode="eject" 
d="M0 192h1024v-128h-1024v128zM512 832l512 -512h-1024z" />
    <glyph glyph-name="uniEA26" unicode="volume&#x2d;high" horiz-adv-x="1088" 
d="M890 38q-9 0 -18 3.5t-16 10.5q-14 14 -14 34t14 34q33 33 58.5 71t42.5 79.5t26 86.5t9 91t-9 91t-26 86.5t-42.5 79.5t-58.5 71q-14 14 -14 34t14 34t34 14t34 -14q40 -40 70.5 -85.5t51 -96t31.5 -104.5t11 -110t-11 -110t-31.5 -104.5t-51 -96t-70.5 -85.5
q-7 -7 -16 -10.5t-18 -3.5v0zM720 128q-10 0 -18.5 3.5t-15.5 11.5q-14 14 -14 33.5t14 33.5q49 50 73.5 111.5t24.5 126.5t-24.5 126.5t-73.5 111.5q-14 14 -14 33.5t14 33.5q14 15 33.5 15t33.5 -15q31 -30 54.5 -65.5t39.5 -74t24.5 -80.5t8.5 -85t-8.5 -85t-24.5 -80.5
t-39.5 -74t-54.5 -65.5q-7 -8 -15.5 -11.5t-17.5 -3.5v0v0zM549 219q-9 0 -18 3.5t-16 10.5q-14 14 -14 34t14 34q30 30 45.5 68.5t15.5 78.5t-15.5 78.5t-45.5 68.5q-14 14 -14 34t14 34t34 14t34 -14q44 -44 66.5 -100.5t22.5 -114.5t-22.5 -114.5t-66.5 -100.5
q-7 -7 -16 -10.5t-18 -3.5v0zM416 0q-6 0 -12 2.5t-11 6.5l-246 247h-115q-13 0 -22.5 9.5t-9.5 22.5v320q0 13 9.5 22.5t22.5 9.5h115l246 247q7 6 16.5 8t18.5 -1q9 -4 14.5 -12t5.5 -18v-832q0 -10 -5.5 -18t-14.5 -12q-3 -1 -6 -1.5t-6 -0.5v0z" />
    <glyph glyph-name="uniEA27" unicode="volume&#x32;" 
d="M720 128q-10 0 -18.5 3.5t-15.5 11.5q-14 14 -14 33.5t14 33.5q49 50 73.5 111.5t24.5 126.5t-24.5 126.5t-73.5 111.5q-14 14 -14 33.5t14 33.5q14 15 33.5 15t33.5 -15q31 -30 54.5 -65.5t39.5 -74t24.5 -80.5t8.5 -85t-8.5 -85t-24.5 -80.5t-39.5 -74t-54.5 -65.5
q-7 -8 -15.5 -11.5t-17.5 -3.5v0v0zM549 219q-9 0 -18 3.5t-16 10.5q-14 14 -14 34t14 34q30 30 45.5 68.5t15.5 78.5t-15.5 78.5t-45.5 68.5q-14 14 -14 34t14 34t34 14t34 -14q44 -44 66.5 -100.5t22.5 -114.5t-22.5 -114.5t-66.5 -100.5q-7 -7 -16 -10.5t-18 -3.5v0z
M416 0q-6 0 -12 2.5t-11 6.5l-246 247h-115q-13 0 -22.5 9.5t-9.5 22.5v320q0 13 9.5 22.5t22.5 9.5h115l246 247q7 6 16.5 8t18.5 -1q9 -4 14.5 -12t5.5 -18v-832q0 -10 -5.5 -18t-14.5 -12q-3 -1 -6 -1.5t-6 -0.5v0z" />
    <glyph glyph-name="uniEA28" unicode="volume&#x33;" 
d="M549 219q-9 0 -18 3.5t-16 10.5q-14 14 -14 34t14 34q30 30 45.5 68.5t15.5 78.5t-15.5 78.5t-45.5 68.5q-14 14 -14 34t14 34t34 14t34 -14q44 -44 66.5 -100.5t22.5 -114.5t-22.5 -114.5t-66.5 -100.5q-7 -7 -16 -10.5t-18 -3.5v0zM416 0q-6 0 -12 2.5t-11 6.5
l-246 247h-115q-13 0 -22.5 9.5t-9.5 22.5v320q0 13 9.5 22.5t22.5 9.5h115l246 247q7 6 16.5 8t18.5 -1q9 -4 14.5 -12t5.5 -18v-832q0 -10 -5.5 -18t-14.5 -12q-3 -1 -6 -1.5t-6 -0.5v0z" />
    <glyph glyph-name="uniEA29" unicode="volume&#x34;" 
d="M416 0q-6 0 -12 2.5t-11 6.5l-246 247h-115q-13 0 -22.5 9.5t-9.5 22.5v320q0 13 9.5 22.5t22.5 9.5h115l246 247q7 6 16.5 8t18.5 -1q9 -4 14.5 -12t5.5 -18v-832q0 -10 -5.5 -18t-14.5 -12q-3 -1 -6 -1.5t-6 -0.5v0z" />
    <glyph glyph-name="uniEA2A" unicode="volume&#x35;" 
d="M960 341v-85h-85l-107 107l-107 -107h-85v85l107 107l-107 107v85h85l107 -107l107 107h85v-85l-107 -107l107 -107v0zM416 0q-6 0 -12 2.5t-11 6.5l-246 247h-115q-13 0 -22.5 9.5t-9.5 22.5v320q0 13 9.5 22.5t22.5 9.5h115l246 247q7 6 16.5 8t18.5 -1q9 -4 14.5 -12
t5.5 -18v-832q0 -10 -5.5 -18t-14.5 -12q-3 -1 -6 -1.5t-6 -0.5v0z" />
    <glyph glyph-name="uniEA2B" unicode="volume&#x36;" 
d="M1024 384h-192v-192h-128v192h-192v128h192v192h128v-192h192v-128v0zM416 0q-6 0 -12 2.5t-11 6.5l-246 247h-115q-13 0 -22.5 9.5t-9.5 22.5v320q0 13 9.5 22.5t22.5 9.5h115l246 247q7 6 16.5 8t18.5 -1q9 -4 14.5 -12t5.5 -18v-832q0 -10 -5.5 -18t-14.5 -12
q-3 -1 -6 -1.5t-6 -0.5v0z" />
    <glyph glyph-name="uniEA2C" unicode="volume&#x37;" 
d="M512 512h512v-128h-512v128v0zM416 0q-6 0 -12 2.5t-11 6.5l-246 247h-115q-13 0 -22.5 9.5t-9.5 22.5v320q0 13 9.5 22.5t22.5 9.5h115l246 247q7 6 16.5 8t18.5 -1q9 -4 14.5 -12t5.5 -18v-832q0 -10 -5.5 -18t-14.5 -12q-3 -1 -6 -1.5t-6 -0.5v0z" />
    <glyph glyph-name="uniEA2D" unicode="loop" 
d="M128 640h640v-192l256 256l-256 256v-192h-768v-384h128v256zM896 256h-640v192l-256 -256l256 -256v192h768v384h-128v-256z" />
    <glyph glyph-name="uniEA2E" unicode="loop&#x32;" 
d="M890 794q-35 38 -77.5 69t-90.5 52.5t-101 33t-109 11.5q-106 0 -199.5 -40t-163 -109.5t-109.5 -163t-40 -199.5h96q0 86 32.5 162t89 132.5t132.5 89t162 32.5q46 0 89.5 -9.5t83 -27.5t74 -43.5t63.5 -57.5l-150 -150h352v352l-134 -134v0zM928 448q0 -86 -32.5 -162
t-89 -132.5t-132.5 -89t-162 -32.5q-46 0 -89.5 9.5t-83 27.5t-74 43.5t-63.5 57.5l150 150h-352v-352l134 134q35 -38 77.5 -69t90.5 -52.5t101 -33t109 -11.5q106 0 199.5 40t163 109.5t109.5 163t40 199.5h-96v0z" />
    <glyph glyph-name="uniEA2F" unicode="infinite" 
d="M784 208q-48 0 -92 18t-78 52l-102 103l-102 -103q-34 -34 -78 -52t-92 -18t-92 18t-78 52t-52 78t-18 92t18 92t52 78t78 52t92 18t92 -18t78 -52l102 -103l102 103q34 34 78 52t92 18t92 -18t78 -52t52 -78t18 -92t-18 -92t-52 -78t-78 -52t-92 -18v0zM682 346
q20 -21 46.5 -32t55.5 -11t55.5 11t46.5 32q21 20 32 46.5t11 55.5t-11 55.5t-32 46.5q-20 21 -46.5 32t-55.5 11t-55.5 -11t-46.5 -32l-103 -102l103 -102v0zM240 593q-29 0 -55.5 -11t-46.5 -32q-21 -20 -32 -46.5t-11 -55.5t11 -55.5t32 -46.5q20 -21 46.5 -32t55.5 -11
t55.5 11t46.5 32l103 102l-103 102q-20 21 -46.5 32t-55.5 11v0v0z" />
    <glyph glyph-name="uniEA30" unicode="random" 
d="M768 256h-101l-160 160l160 160h101v-160l224 224l-224 224v-160h-128q-13 0 -24.5 -5t-20.5 -14l-179 -178l-179 178q-9 9 -20.5 14t-24.5 5h-192v-128h165l160 -160l-160 -160h-165v-128h192q13 0 24.5 5t20.5 14l179 178l179 -178q9 -9 20.5 -14t24.5 -5h128v-160
l224 224l-224 224v-160v0z" />
    <glyph glyph-name="uniEA31" unicode="arrow&#x2d;up&#x2d;left" 
d="M0 224l256 256l544 -544l224 224l-544 544l256 256h-736v-736v0z" />
    <glyph glyph-name="uniEA32" unicode="arrow&#x2d;up" 
d="M512 928l-480 -480h288v-512h384v512h288z" />
    <glyph glyph-name="uniEA33" unicode="arrow&#x2d;up&#x2d;right" 
d="M288 960l256 -256l-544 -544l224 -224l544 544l256 -256v736h-736v0z" />
    <glyph glyph-name="uniEA34" unicode="arrow&#x2d;right" 
d="M992 448l-480 480v-288h-512v-384h512v-288z" />
    <glyph glyph-name="uniEA35" unicode="arrow&#x2d;down&#x2d;right" 
d="M1024 672l-256 -256l-544 544l-224 -224l544 -544l-256 -256h736v736v0z" />
    <glyph glyph-name="uniEA36" unicode="arrow&#x2d;down" 
d="M512 -32l480 480h-288v512h-384v-512h-288z" />
    <glyph glyph-name="uniEA37" unicode="arrow&#x2d;down&#x2d;left" 
d="M736 -64l-256 256l544 544l-224 224l-544 -544l-256 256v-736h736v0z" />
    <glyph glyph-name="uniEA38" unicode="arrow&#x2d;left" 
d="M32 448l480 -480v288h512v384h-512v288z" />
    <glyph glyph-name="uniEA39" unicode="arrow&#x2d;up&#x2d;left&#x32;" 
d="M877 173l-530 531h229q27 0 45.5 18.5t18.5 45.5t-18.5 45.5t-45.5 18.5h-384q-19 0 -35.5 -11t-23.5 -29q-3 -5 -4 -11.5t-1 -12.5v0v-384q0 -27 18.5 -45.5t45.5 -18.5t45.5 18.5t18.5 45.5v229l531 -530q9 -10 21 -14.5t24 -4.5t24 4.5t21 14.5q19 18 19 45t-19 45v0z
" />
    <glyph glyph-name="uniEA3A" unicode="arrow&#x2d;up&#x32;" 
d="M877 557l-320 320q-18 19 -45 19t-45 -19l-320 -320q-19 -18 -19 -45t19 -45q18 -19 45 -19t45 19l211 210v-613q0 -27 18.5 -45.5t45.5 -18.5t45.5 18.5t18.5 45.5v613l211 -210q9 -10 21 -14.5t24 -4.5t24 4.5t21 14.5q19 18 19 45t-19 45v0z" />
    <glyph glyph-name="uniEA3B" unicode="arrow&#x2d;up&#x2d;right&#x32;" 
d="M237 83l531 530v-229q0 -27 18.5 -45.5t45.5 -18.5t45.5 18.5t18.5 45.5v384q0 19 -11 35.5t-29 23.5q-5 3 -11.5 4t-12.5 1v0h-384q-27 0 -45.5 -18.5t-18.5 -45.5t18.5 -45.5t45.5 -18.5h229l-530 -531q-10 -9 -14.5 -21t-4.5 -24t4.5 -24t14.5 -21q18 -19 45 -19
t45 19v0z" />
    <glyph glyph-name="uniEA3C" unicode="arrow&#x2d;right&#x32;" 
d="M621 83l320 320q19 18 19 45t-19 45l-320 320q-18 19 -45 19t-45 -19q-19 -18 -19 -45t19 -45l210 -211h-613q-27 0 -45.5 -18.5t-18.5 -45.5t18.5 -45.5t45.5 -18.5h613l-210 -211q-10 -9 -14.5 -21t-4.5 -24t4.5 -24t14.5 -21q18 -19 45 -19t45 19v0z" />
    <glyph glyph-name="uniEA3D" unicode="arrow&#x2d;down&#x2d;right&#x32;" 
d="M147 723l530 -531h-229q-27 0 -45.5 -18.5t-18.5 -45.5t18.5 -45.5t45.5 -18.5h384q19 0 35.5 11t23.5 29q3 5 4 11.5t1 12.5v0v384q0 27 -18.5 45.5t-45.5 18.5t-45.5 -18.5t-18.5 -45.5v-229l-531 530q-9 10 -21 14.5t-24 4.5t-24 -4.5t-21 -14.5q-19 -18 -19 -45
t19 -45v0z" />
    <glyph glyph-name="uniEA3E" unicode="arrow&#x2d;down&#x32;" 
d="M877 339l-320 -320q-18 -19 -45 -19t-45 19l-320 320q-19 18 -19 45t19 45q18 19 45 19t45 -19l211 -210v613q0 27 18.5 45.5t45.5 18.5t45.5 -18.5t18.5 -45.5v-613l211 210q9 10 21 14.5t24 4.5t24 -4.5t21 -14.5q19 -18 19 -45t-19 -45v0z" />
    <glyph glyph-name="uniEA3F" unicode="arrow&#x2d;down&#x2d;left&#x32;" 
d="M787 813l-531 -530v229q0 27 -18.5 45.5t-45.5 18.5t-45.5 -18.5t-18.5 -45.5v-384q0 -19 11 -35.5t29 -23.5q5 -3 11.5 -4t12.5 -1v0h384q27 0 45.5 18.5t18.5 45.5t-18.5 45.5t-45.5 18.5h-229l530 531q10 9 14.5 21t4.5 24t-4.5 24t-14.5 21q-18 19 -45 19t-45 -19v0
v0z" />
    <glyph glyph-name="uniEA40" unicode="arrow&#x2d;left&#x32;" 
d="M403 83l-320 320q-19 18 -19 45t19 45l320 320q18 19 45 19t45 -19q19 -18 19 -45t-19 -45l-210 -211h613q27 0 45.5 -18.5t18.5 -45.5t-18.5 -45.5t-45.5 -18.5h-613l210 -211q10 -9 14.5 -21t4.5 -24t-4.5 -24t-14.5 -21q-18 -19 -45 -19t-45 19v0z" />
    <glyph glyph-name="uniEA41" unicode="circle&#x2d;up" 
d="M0 448q0 -106 40 -199.5t109.5 -163t163 -109.5t199.5 -40t199.5 40t163 109.5t109.5 163t40 199.5t-40 199.5t-109.5 163t-163 109.5t-199.5 40t-199.5 -40t-163 -109.5t-109.5 -163t-40 -199.5v0zM928 448q0 -86 -32.5 -162t-89 -132.5t-132.5 -89t-162 -32.5
t-162 32.5t-132.5 89t-89 132.5t-32.5 162t32.5 162t89 132.5t132.5 89t162 32.5t162 -32.5t132.5 -89t89 -132.5t32.5 -162v0zM707 291l90 90l-285 286l-285 -286l90 -90l195 194z" />
    <glyph glyph-name="uniEA42" unicode="circle&#x2d;right" 
d="M512 960q-106 0 -199.5 -40t-163 -109.5t-109.5 -163t-40 -199.5t40 -199.5t109.5 -163t163 -109.5t199.5 -40t199.5 40t163 109.5t109.5 163t40 199.5t-40 199.5t-109.5 163t-163 109.5t-199.5 40v0zM512 32q-86 0 -162 32.5t-132.5 89t-89 132.5t-32.5 162t32.5 162
t89 132.5t132.5 89t162 32.5t162 -32.5t132.5 -89t89 -132.5t32.5 -162t-32.5 -162t-89 -132.5t-132.5 -89t-162 -32.5v0zM355 253l90 -90l286 285l-286 285l-90 -90l194 -195z" />
    <glyph glyph-name="uniEA43" unicode="circle&#x2d;down" 
d="M1024 448q0 106 -40 199.5t-109.5 163t-163 109.5t-199.5 40t-199.5 -40t-163 -109.5t-109.5 -163t-40 -199.5t40 -199.5t109.5 -163t163 -109.5t199.5 -40t199.5 40t163 109.5t109.5 163t40 199.5v0zM96 448q0 86 32.5 162t89 132.5t132.5 89t162 32.5t162 -32.5
t132.5 -89t89 -132.5t32.5 -162t-32.5 -162t-89 -132.5t-132.5 -89t-162 -32.5t-162 32.5t-132.5 89t-89 132.5t-32.5 162v0zM317 605l-90 -90l285 -286l285 286l-90 90l-195 -194z" />
    <glyph glyph-name="uniEA44" unicode="circle&#x2d;left" 
d="M512 -64q106 0 199.5 40t163 109.5t109.5 163t40 199.5t-40 199.5t-109.5 163t-163 109.5t-199.5 40t-199.5 -40t-163 -109.5t-109.5 -163t-40 -199.5t40 -199.5t109.5 -163t163 -109.5t199.5 -40v0zM512 864q86 0 162 -32.5t132.5 -89t89 -132.5t32.5 -162t-32.5 -162
t-89 -132.5t-132.5 -89t-162 -32.5t-162 32.5t-132.5 89t-89 132.5t-32.5 162t32.5 162t89 132.5t132.5 89t162 32.5v0zM669 643l-90 90l-286 -285l286 -285l90 90l-194 195z" />
    <glyph glyph-name="uniEA45" unicode="arrows" 
d="M960 960h64v-512h-64v512v0zM0 448h64v-512h-64v512v0zM320 256h704v-128h-704v-160l-224 224l224 224v-160v0zM704 640h-704v128h704v160l224 -224l-224 -224v160z" />
    <glyph glyph-name="uniEA46" unicode="move&#x2d;up" 
d="M704 448v-384h64v384h160l-192 192l-192 -192h160zM64 768h96v-64h-96v64v0zM192 768h96v-64h-96v64v0zM320 768h64v-96h-64v96v0zM64 544h64v-96h-64v96v0zM160 512h96v-64h-96v64v0zM288 512h96v-64h-96v64v0zM64 672h64v-96h-64v96v0zM320 640h64v-96h-64v96v0z
M320 256v-192h-192v192h192v0zM384 320h-320v-320h320v320v0z" />
    <glyph glyph-name="uniEA47" unicode="move&#x2d;down" 
d="M768 256v384h-64v-384h-160l192 -192l192 192h-160zM320 704v-192h-192v192h192v0zM384 768h-320v-320h320v320v0zM64 320h96v-64h-96v64v0zM192 320h96v-64h-96v64v0zM320 320h64v-96h-64v96v0zM64 96h64v-96h-64v96v0zM160 64h96v-64h-96v64v0zM288 64h96v-64h-96v64v0
zM64 224h64v-96h-64v96v0zM320 192h64v-96h-64v96v0z" />
    <glyph glyph-name="uniEA48" unicode="arrange" 
d="M320 192v768h-128v-768h-160l224 -224l224 224h-160v0zM928 -64h-256q-9 0 -16.5 4.5t-11.5 12.5t-4 16.5t5 16.5l223 334h-196q-13 0 -22.5 9.5t-9.5 22.5t9.5 22.5t22.5 9.5h256q9 0 16.5 -4.5t11.5 -12.5t4 -16.5t-5 -16.5l-223 -334h196q13 0 22.5 -9.5t9.5 -22.5
t-9.5 -22.5t-22.5 -9.5v0zM1021 558l-192 384q-4 8 -12 13t-17 5t-17 -5t-12 -13l-192 -384q-6 -12 -1.5 -24.5t16.5 -18.5q3 -1 6.5 -2t7.5 -1q9 0 16.5 4.5t12.5 13.5l55 110h216l55 -110q6 -12 18.5 -16.5t24.5 1.5t16.5 18.5t-1.5 24.5v0zM724 704l76 152l76 -152h-152
v0z" />
    <glyph glyph-name="uniEA49" unicode="arrange&#x32;" 
d="M320 192v768h-128v-768h-160l224 -224l224 224h-160v0zM928 512h-256q-9 0 -16.5 4.5t-11.5 12.5t-4 16.5t5 16.5l223 334h-196q-13 0 -22.5 9.5t-9.5 22.5t9.5 22.5t22.5 9.5h256q9 0 16.5 -4.5t11.5 -12.5t4 -16.5t-5 -16.5l-223 -334h196q13 0 22.5 -9.5t9.5 -22.5
t-9.5 -22.5t-22.5 -9.5v0zM1021 -18l-192 384q-4 8 -12 13t-17 5t-17 -5t-12 -13l-192 -384q-6 -12 -1.5 -24.5t16.5 -18.5q3 -1 6.5 -2t7.5 -1q9 0 16.5 4.5t12.5 13.5l55 110h216l55 -110q6 -12 18.5 -16.5t24.5 1.5t16.5 18.5t-1.5 24.5v0zM724 128l76 152l76 -152h-152
v0z" />
    <glyph glyph-name="uniEA4A" unicode="arrange&#x33;" 
d="M320 192v768h-128v-768h-160l224 -224l224 224h-160v0zM864 512q-13 0 -22.5 9.5t-9.5 22.5v352h-32q-13 0 -22.5 9.5t-9.5 22.5t9.5 22.5t22.5 9.5h64q13 0 22.5 -9.5t9.5 -22.5v-384q0 -13 -9.5 -22.5t-22.5 -9.5v0zM928 384h-192q-13 0 -22.5 -9.5t-9.5 -22.5v-192
q0 -13 9.5 -22.5t22.5 -9.5h160v-128h-160q-13 0 -22.5 -9.5t-9.5 -22.5t9.5 -22.5t22.5 -9.5h192q13 0 22.5 9.5t9.5 22.5v384q0 13 -9.5 22.5t-22.5 9.5v0zM768 320h128v-128h-128v128v0z" />
    <glyph glyph-name="uniEA4B" unicode="arrange&#x34;" 
d="M320 192v768h-128v-768h-160l224 -224l224 224h-160v0zM864 -64q-13 0 -22.5 9.5t-9.5 22.5v352h-32q-13 0 -22.5 9.5t-9.5 22.5t9.5 22.5t22.5 9.5h64q13 0 22.5 -9.5t9.5 -22.5v-384q0 -13 -9.5 -22.5t-22.5 -9.5v0zM928 960h-192q-13 0 -22.5 -9.5t-9.5 -22.5v-192
q0 -13 9.5 -22.5t22.5 -9.5h160v-128h-160q-13 0 -22.5 -9.5t-9.5 -22.5t9.5 -22.5t22.5 -9.5h192q13 0 22.5 9.5t9.5 22.5v384q0 13 -9.5 22.5t-22.5 9.5v0zM768 896h128v-128h-128v128v0z" />
    <glyph glyph-name="uniEA4C" unicode="arrange&#x35;" 
d="M320 192v768h-128v-768h-160l224 -224l224 224h-160v0zM448 384h576v-128h-576v128v0zM448 576h448v-128h-448v128v0zM448 768h320v-128h-320v128v0zM448 960h192v-128h-192v128v0z" />
    <glyph glyph-name="uniEA4D" unicode="arrange&#x36;" 
d="M320 192v768h-128v-768h-160l224 -224l224 224h-160v0zM448 960h576v-128h-576v128v0zM448 768h448v-128h-448v128v0zM448 576h320v-128h-320v128v0zM448 384h192v-128h-192v128v0z" />
    <glyph glyph-name="uniEA4E" unicode="command" 
d="M736 64q-66 0 -113 47t-47 113v96h-128v-96q0 -66 -47 -113t-113 -47t-113 47t-47 113t47 113t113 47h96v128h-96q-66 0 -113 47t-47 113t47 113t113 47t113 -47t47 -113v-96h128v96q0 66 47 113t113 47t113 -47t47 -113t-47 -113t-113 -47h-96v-128h96q66 0 113 -47
t47 -113t-47 -113t-113 -47v0zM640 320v-96q0 -40 28 -68t68 -28t68 28t28 68t-28 68t-68 28h-96v0zM288 320q-40 0 -68 -28t-28 -68t28 -68t68 -28t68 28t28 68v96h-96v0zM448 384h128v128h-128v-128v0zM640 576h96q40 0 68 28t28 68t-28 68t-68 28t-68 -28t-28 -68v-96v0z
M288 768q-40 0 -68 -28t-28 -68t28 -68t68 -28h96v96q0 40 -28 68t-68 28v0z" />
    <glyph glyph-name="uniEA4F" unicode="shift" 
d="M672 64h-320q-13 0 -22.5 9.5t-9.5 22.5v352h-128q-10 0 -18 5.5t-12 14.5q-3 9 -1 18.5t8 16.5l320 320q10 9 23 9t23 -9l320 -320q6 -7 8 -16.5t-1 -18.5q-4 -9 -12 -14.5t-18 -5.5h-128v-352q0 -13 -9.5 -22.5t-22.5 -9.5v0zM384 128h256v352q0 13 9.5 22.5t22.5 9.5
h83l-243 243l-243 -243h83q13 0 22.5 -9.5t9.5 -22.5v-352v0z" />
    <glyph glyph-name="uniEA50" unicode="ctrl" 
d="M736 512q-7 0 -13 3t-11 8l-200 228l-200 -228q-9 -10 -22 -11t-23 8t-11 22t8 23l224 256q4 5 10.5 8t13.5 3t13.5 -3t10.5 -8l224 -256q9 -10 8 -23t-11 -22q-4 -4 -9.5 -6t-11.5 -2v0z" />
    <glyph glyph-name="uniEA51" unicode="option" 
d="M928 128h-256q-9 0 -17 5t-12 14l-248 557h-299q-13 0 -22.5 9.5t-9.5 22.5t9.5 22.5t22.5 9.5h320q9 0 17 -5t12 -14l248 -557h235q13 0 22.5 -9.5t9.5 -22.5t-9.5 -22.5t-22.5 -9.5v0zM928 704h-320q-13 0 -22.5 9.5t-9.5 22.5t9.5 22.5t22.5 9.5h320q13 0 22.5 -9.5
t9.5 -22.5t-9.5 -22.5t-22.5 -9.5v0z" />
    <glyph glyph-name="uniEA52" unicode="checkbox&#x2d;checked" 
d="M896 960h-768q-53 0 -90.5 -37.5t-37.5 -90.5v-768q0 -53 37.5 -90.5t90.5 -37.5h768q53 0 90.5 37.5t37.5 90.5v768q0 53 -37.5 90.5t-90.5 37.5v0zM448 165l-237 238l90 90l147 -146l307 306l90 -90l-397 -398v0z" />
    <glyph glyph-name="uniEA53" unicode="checkbox&#x32;" 
d="M896 960h-768q-53 0 -90.5 -37.5t-37.5 -90.5v-768q0 -53 37.5 -90.5t90.5 -37.5h768q53 0 90.5 37.5t37.5 90.5v768q0 53 -37.5 90.5t-90.5 37.5v0zM896 64h-768v768h768v-768v0z" />
    <glyph glyph-name="uniEA54" unicode="radio&#x2d;checked" 
d="M512 960q-106 0 -199.5 -40t-163 -109.5t-109.5 -163t-40 -199.5t40 -199.5t109.5 -163t163 -109.5t199.5 -40t199.5 40t163 109.5t109.5 163t40 199.5t-40 199.5t-109.5 163t-163 109.5t-199.5 40v0zM512 64q-80 0 -149.5 30t-122 82.5t-82.5 122t-30 149.5t30 149.5
t82.5 122t122 82.5t149.5 30t149.5 -30t122 -82.5t82.5 -122t30 -149.5t-30 -149.5t-82.5 -122t-122 -82.5t-149.5 -30v0zM320 448q0 80 56 136t136 56t136 -56t56 -136t-56 -136t-136 -56t-136 56t-56 136v0z" />
    <glyph glyph-name="uniEA55" unicode="radio&#x2d;checked&#x32;" 
d="M512 960q-106 0 -199.5 -40t-163 -109.5t-109.5 -163t-40 -199.5t40 -199.5t109.5 -163t163 -109.5t199.5 -40t199.5 40t163 109.5t109.5 163t40 199.5t-40 199.5t-109.5 163t-163 109.5t-199.5 40v0zM512 320q-53 0 -90.5 37.5t-37.5 90.5t37.5 90.5t90.5 37.5
t90.5 -37.5t37.5 -90.5t-37.5 -90.5t-90.5 -37.5v0z" />
    <glyph glyph-name="uniEA56" unicode="radio&#x2d;unchecked" 
d="M512 960q-106 0 -199.5 -40t-163 -109.5t-109.5 -163t-40 -199.5t40 -199.5t109.5 -163t163 -109.5t199.5 -40t199.5 40t163 109.5t109.5 163t40 199.5t-40 199.5t-109.5 163t-163 109.5t-199.5 40v0zM512 64q-80 0 -149.5 30t-122 82.5t-82.5 122t-30 149.5t30 149.5
t82.5 122t122 82.5t149.5 30t149.5 -30t122 -82.5t82.5 -122t30 -149.5t-30 -149.5t-82.5 -122t-122 -82.5t-149.5 -30v0z" />
    <glyph glyph-name="uniEA57" unicode="crop" 
d="M832 704l192 192l-64 64l-192 -192h-448v192h-128v-192h-192v-128h192v-512h512v-192h128v192h192v128h-192v448v0zM320 640h320l-320 -320v320v0zM384 256l320 320v-320h-320v0z" />
    <glyph glyph-name="uniEA58" unicode="make&#x2d;group" 
d="M320 832h-128q-26 0 -45 -19t-19 -45v-128q0 -26 19 -45t45 -19h128q26 0 45 19t19 45v128q0 26 -19 45t-45 19v0zM704 576h128q26 0 45 19t19 45v128q0 26 -19 45t-45 19h-128q-26 0 -45 -19t-19 -45v-128q0 -26 19 -45t45 -19v0zM704 768h128v-128h-128v128v0zM320 320
h-128q-26 0 -45 -19t-19 -45v-128q0 -26 19 -45t45 -19h128q26 0 45 19t19 45v128q0 26 -19 45t-45 19v0zM320 128h-128v128h128v-128v0zM832 320h-128q-26 0 -45 -19t-19 -45v-128q0 -26 19 -45t45 -19h128q26 0 45 19t19 45v128q0 26 -19 45t-45 19v0zM896 448h-64
q-64 0 -122.5 24t-103.5 70q-46 45 -70 103.5t-24 122.5v64q0 53 -37.5 90.5t-90.5 37.5h-256q-53 0 -90.5 -37.5t-37.5 -90.5v-256q0 -53 37.5 -90.5t90.5 -37.5h64q64 0 122.5 -24t103.5 -70q46 -45 70 -103.5t24 -122.5v-64q0 -53 37.5 -90.5t90.5 -37.5h256
q53 0 90.5 37.5t37.5 90.5v256q0 53 -37.5 90.5t-90.5 37.5v0zM960 64q0 -13 -5 -24.5t-14 -20.5t-20.5 -14t-24.5 -5h-256q-13 0 -24.5 5t-20.5 14t-14 20.5t-5 24.5v64q0 80 -30 149.5t-82.5 122t-122 82.5t-149.5 30h-64q-13 0 -24.5 5t-20.5 14t-14 20.5t-5 24.5v256
q0 13 5 24.5t14 20.5t20.5 14t24.5 5h256q13 0 24.5 -5t20.5 -14t14 -20.5t5 -24.5v-64q0 -80 30 -149.5t82.5 -122t122 -82.5t149.5 -30h64q13 0 24.5 -5t20.5 -14t14 -20.5t5 -24.5v-256v0z" />
    <glyph glyph-name="uniEA59" unicode="ungroup" 
d="M384 496q0 -20 -14 -34t-34 -14h-96q-20 0 -34 14t-14 34v96q0 20 14 34t34 14h96q20 0 34 -14t14 -34v-96v0zM704 496q0 -20 -14 -34t-34 -14h-96q-20 0 -34 14t-14 34v96q0 20 14 34t34 14h96q20 0 34 -14t14 -34v-96v0zM384 176q0 -20 -14 -34t-34 -14h-96
q-20 0 -34 14t-14 34v96q0 20 14 34t34 14h96q20 0 34 -14t14 -34v-96v0zM704 176q0 -20 -14 -34t-34 -14h-96q-20 0 -34 14t-14 34v96q0 20 14 34t34 14h96q20 0 34 -14t14 -34v-96v0zM912 800l112 112v48h-48l-112 -112l-112 112h-48v-48l112 -112l-112 -112v-48h48
l112 112l112 -112h48v48zM0 192h64v-128h-64v128v0zM0 384h64v-128h-64v128v0zM832 512h64v-128h-64v128v0zM832 128h64v-128h-64v128v0zM832 320h64v-128h-64v128v0zM0 576h64v-128h-64v128v0zM0 768h64v-128h-64v128v0zM512 832h128v-64h-128v64v0zM320 832h128v-64h-128
v64v0zM128 832h128v-64h-128v64v0zM448 0h128v-64h-128v64v0zM640 0h128v-64h-128v64v0zM256 0h128v-64h-128v64v0zM64 0h128v-64h-128v64v0z" />
    <glyph glyph-name="uniEA5A" unicode="cut" 
d="M914 280q-25 39 -57.5 67t-67.5 41.5t-69 13t-62 -18.5q-5 -3 -9 -6.5t-8 -7.5l-80 124l184 288q11 21 14.5 45t-1.5 49q-5 24 -18 43.5t-30 33.5l-13 8l-217 -340l-217 340l-13 -8q-17 -14 -30 -33.5t-18 -43.5q-5 -25 -1.5 -49t14.5 -45l184 -288l-80 -124q-4 4 -8 7.5
t-9 6.5q-28 18 -62 18.5t-69 -13t-67.5 -41.5t-57.5 -67t-36.5 -80t-9.5 -78.5t17 -68t43 -48.5q28 -17 62 -18t69 13t67.5 41.5t57.5 66.5l164 258l164 -258q25 -39 57.5 -66.5t67.5 -41.5t69 -13t62 18q28 18 43 48.5t17 68t-9.5 78.5t-36.5 80v0zM235 160
q-23 -36 -49 -54t-46 -22v0v0q-6 -1 -14 -1.5t-14 3.5q-7 5 -11 15.5t-5 25.5q-1 23 7 50t24 52q23 35 49 53t46 22q6 1 14 1.5t14 -3.5q7 -4 11 -15t5 -25q1 -24 -7 -51t-24 -51v0zM480 448q-13 0 -22.5 9.5t-9.5 22.5t9.5 22.5t22.5 9.5t22.5 -9.5t9.5 -22.5t-9.5 -22.5
t-22.5 -9.5v0zM864 127q-1 -15 -5 -25.5t-11 -15.5q-6 -4 -14 -3.5t-14 1.5v0v0q-20 4 -46 22t-49 54q-16 24 -24 51t-7 51q1 14 5 25t11 15q6 4 14 3.5t14 -1.5q20 -4 46 -22t49 -53q16 -25 24 -52t7 -50v0z" />
    <glyph glyph-name="uniEA5B" unicode="funnel" 
d="M512 960q-106 0 -199.5 -12.5t-163 -34.5t-109.5 -51t-40 -62v-96l384 -384v-320q0 -27 37.5 -45.5t90.5 -18.5t90.5 18.5t37.5 45.5v320l384 384v96q0 33 -40 62t-109.5 51t-163 34.5t-199.5 12.5v0zM94 821q18 10 43 20t55 18q33 9 70.5 16t78 11.5t84 7t87.5 2.5
t87.5 -2.5t84 -7t78 -11.5t70.5 -16q30 -8 55 -18t43 -20q11 -7 18 -12.5t10 -8.5q-3 -3 -10 -8.5t-18 -12.5q-18 -10 -43 -20t-55 -18q-33 -9 -70.5 -16t-78 -11.5t-84 -7t-87.5 -2.5t-87.5 2.5t-84 7t-78 11.5t-70.5 16q-30 8 -55 18t-43 20q-11 7 -18 12.5t-10 8.5
q3 3 10 8.5t18 12.5v0z" />
    <glyph glyph-name="uniEA5C" unicode="font" 
d="M800 944q-68 0 -120 8t-122 8q-113 0 -196.5 -29.5t-138 -78t-81 -111t-26.5 -127.5q0 -77 36.5 -106.5t108.5 -29.5q-6 11 -12.5 30t-6.5 74q0 153 50.5 208.5t124.5 58.5l-16 -125.5t-53.5 -283t-97.5 -301t-149 -178.5v-25h317l108 512h198l44 128h-215l52 246
q45 -9 87.5 -16.5t80.5 -7.5q46 0 86 27.5t64 134.5q-29 -9 -59.5 -12.5t-63.5 -3.5v0z" />
    <glyph glyph-name="uniEA5D" unicode="ligature" 
d="M768 88v0v0v437l-128 -6h-252v21q0 61 4.5 116t12.5 79q6 16 17 31t27 28q16 12 31 18.5t30 6.5q13 0 23.5 -2t18.5 -7q11 -6 22 -17t21 -25q28 -40 41 -54t19 -19q11 -7 23.5 -11t26.5 -4t26 5t23 16q10 10 15 22.5t5 27.5q0 16 -7 33t-20 35q-13 17 -32.5 31t-46.5 25
q-25 10 -54 15.5t-60 5.5q-46 0 -87.5 -11t-77.5 -32q-36 -22 -64 -52t-46 -68q-17 -35 -19.5 -94.5t-3.5 -119.5h-126v-72h126v-324q0 -54 -12 -74t-18 -28q-9 -10 -24.5 -19.5t-36.5 -9.5h-38v-56h385v56h-7q-68 0 -92.5 19t-24.5 102v0v0v334h140q56 0 74.5 -2t21.5 -3
t7 -3.5t6 -5.5q1 -1 3 -20t2 -63v-250q0 -44 -4 -62t-7 -23q-7 -10 -18 -16t-37 -7v-56h294v56q-69 0 -85.5 15.5t-16.5 80.5v0z" />
    <glyph glyph-name="uniEA5E" unicode="ligature&#x32;" 
d="M855 43q-8 0 -46 8.5t-42 20.5q-7 30 -9 62t-2 68v541q0 61 8 94.5l8 33.5q-1 6 -6 15t-12 9h-4q-4 0 -36 -16.5t-67 -16.5q-29 0 -51 17t-55 17q-69 0 -120.5 -27t-85 -75t-50 -114.5t-16.5 -146.5v-11q0 -3 -2 -6t-5 -3h-60q-6 0 -14 -23t-8 -37q0 -4 1 -6.5t3 -2.5h78
q3 0 5 -3.5t2 -6.5v-95.5t-0.5 -83t-0.5 -58.5v-22q0 -16 -2 -46t-9 -57q-3 -12 -39.5 -20.5t-49.5 -8.5q-6 0 -6 -18.5t6 -24.5q45 2 80 4.5t80 2.5q42 0 77.5 -2.5t79.5 -4.5q2 7 1.5 25t-6.5 18q-8 0 -46 8.5t-42 20.5q-7 30 -8.5 62t-2.5 68v233q0 4 2.5 6.5t5.5 2.5
h152q7 16 12 32.5t5 26.5q0 6 -1 8t-6 2h-163q-2 0 -4.5 2.5t-2.5 4.5v53q0 49 9.5 93.5t28 78.5t45 54t60.5 20q47 0 82.5 -40t35.5 -158v0v0q0 -3 0.5 -5.5t0.5 -4.5v-436q0 -16 -2 -46t-9 -57q-3 -12 -39.5 -20.5t-49.5 -8.5q-6 0 -6 -18.5t6 -24.5q45 2 80 4.5t80 2.5
q42 0 77.5 -2.5t79.5 -4.5q2 7 1.5 25t-6.5 18v0z" />
    <glyph glyph-name="uniEA5F" unicode="text&#x2d;height" 
d="M896 192h128l-160 -192l-160 192h128v512h-128l160 192l160 -192h-128v-512zM640 896v-256l-64 128h-192v-704h128v-64h-384v64h128v704h-192l-64 -128v256h640z" />
    <glyph glyph-name="uniEA60" unicode="text&#x2d;width" 
d="M256 64v-128l-192 160l192 160v-128h512v128l192 -160l-192 -160v128h-512zM832 896v-256l-64 128h-192v-448h128v-64h-384v64h128v448h-192l-64 -128v256h640z" />
    <glyph glyph-name="uniEA61" unicode="font&#x2d;si&#x7a;e" 
d="M64 448h384v-128h-128v-384h-128v384h-128v128zM960 704h-252v-768h-136v768h-252v128h640v-128z" />
    <glyph glyph-name="uniEA62" unicode="bold" 
d="M708 475q28 34 44 76t16 89q0 53 -20 99.5t-55 81.5t-81.5 55t-99.5 20h-320v-896h384q53 0 99.5 20t81.5 55t55 81.5t20 99.5q0 70 -34 128t-90 91v0zM384 768h101q42 0 72 -37.5t30 -90.5t-30 -90.5t-71 -37.5h-102v256v0zM543 128h-159v256h159q44 0 75 -37.5
t31 -90.5t-31 -90.5t-75 -37.5v0z" />
    <glyph glyph-name="uniEA63" unicode="underline" 
d="M704 896h128v-416q0 -60 -25 -112.5t-68.5 -91.5t-102 -61.5t-124.5 -22.5t-124.5 22.5t-102 61.5t-68.5 91.5t-25 112.5v416h128v-416q0 -30 13.5 -58t37.5 -51q28 -24 64.5 -37.5t76.5 -13.5t76.5 13.5t64.5 37.5q24 23 37.5 51t13.5 58v416v0zM192 128h640v-128h-640
v128z" />
    <glyph glyph-name="uniEA64" unicode="italic" 
d="M896 896v-64h-128l-320 -768h128v-64h-448v64h128l320 768h-128v64h448z" />
    <glyph glyph-name="uniEA65" unicode="strikethrough" 
d="M1024 448v-64h-235q21 -29 32 -61.5t11 -66.5q0 -53 -26.5 -102t-74.5 -85q-44 -33 -100.5 -51t-118.5 -18t-118.5 18t-100.5 51q-48 36 -74.5 85t-26.5 102h128q0 -52 57 -90t135 -38t135 38t57 90t-57 90t-135 38h-512v64h300q-2 1 -4 2.5t-3 2.5q-48 36 -74.5 85
t-26.5 102t26.5 102t74.5 85q44 33 100.5 51t118.5 18t118.5 -18t100.5 -51q48 -36 74.5 -85t26.5 -102h-128q0 52 -57 90t-135 38t-135 -38t-57 -90t57 -90t135 -38q59 0 114 -16.5t98 -47.5h300v0z" />
    <glyph glyph-name="uniEA66" unicode="omega" 
d="M704 64h256l64 128v-256h-384v214q49 21 90 57t71 83.5t46.5 103.5t16.5 118q0 80 -27.5 150t-75.5 121.5t-112 81t-137 29.5t-137 -29.5t-112 -81t-75.5 -121.5t-27.5 -150q0 -62 16.5 -118t46.5 -103.5t71 -83.5t90 -57v-214h-384v256l64 -128h256v33q-70 25 -129 66.5
t-101.5 95.5t-66 118t-23.5 135q0 93 40 174.5t109.5 142.5t163 96t199.5 35t199.5 -35t163 -96t109.5 -142.5t40 -174.5q0 -71 -23.5 -135t-66 -118t-101.5 -95.5t-129 -66.5v-33v0z" />
    <glyph glyph-name="uniEA67" unicode="sigma" 
d="M942 225l44 95h38l-64 -384h-960v74l332 391l-332 332v227h980l44 -256h-34l-19 39q-27 55 -54 72t-85 17h-662l353 -353l-297 -351h542q87 0 120 28t54 69v0z" />
    <glyph glyph-name="uniEA68" unicode="page&#x2d;break" 
d="M0 448h128v-64h-128v64zM192 448h192v-64h-192v64zM448 448h128v-64h-128v64zM640 448h192v-64h-192v64zM896 448h128v-64h-128v64zM880 960l16 -448h-768l16 448h32l16 -384h640l16 384h32zM144 -64l-16 384h768l-16 -384h-32l-16 320h-640l-16 -320h-32z" />
    <glyph glyph-name="uniEA69" unicode="superscript" 
d="M768 754v-50h128v-64h-192v146l128 60v50h-128v64h192v-146zM676 704h-136l-188 -188l-188 188h-136l256 -256l-256 -256h136l188 188l188 -188h136l-256 256z" />
    <glyph glyph-name="uniEA6A" unicode="subscript" 
d="M768 50v-50h128v-64h-192v146l128 60v50h-128v64h192v-146zM676 704h-136l-188 -188l-188 188h-136l256 -256l-256 -256h136l188 188l188 -188h136l-256 256z" />
    <glyph glyph-name="uniEA6B" unicode="superscript&#x32;" 
d="M194 128l58 192h264l58 -192h114l-192 640h-224l-192 -640h114v0zM348 640h72l58 -192h-188l58 192v0zM704 128l160 256l160 -256h-320v0zM864 832h-64q-13 0 -22.5 9.5t-9.5 22.5t9.5 22.5t22.5 9.5h128q13 0 22.5 9.5t9.5 22.5t-9.5 22.5t-22.5 9.5h-128q-40 0 -68 -28
t-28 -68q0 -18 6.5 -34.5t18.5 -29.5q13 -15 31.5 -23.5t39.5 -8.5h64q13 0 22.5 -9.5t9.5 -22.5t-9.5 -22.5t-22.5 -9.5h-128q-13 0 -22.5 -9.5t-9.5 -22.5t9.5 -22.5t22.5 -9.5h128q40 0 68 28t28 68q0 18 -6.5 34.5t-18.5 29.5q-13 15 -31.5 23.5t-39.5 8.5v0z" />
    <glyph glyph-name="uniEA6C" unicode="subscript&#x32;" 
d="M194 128l58 192h264l58 -192h114l-192 640h-224l-192 -640h114v0zM348 640h72l58 -192h-188l58 192v0zM1024 768l-160 -256l-160 256h320v0zM864 128h-64q-13 0 -22.5 9.5t-9.5 22.5t9.5 22.5t22.5 9.5h128q13 0 22.5 9.5t9.5 22.5t-9.5 22.5t-22.5 9.5h-128
q-40 0 -68 -28t-28 -68q0 -18 6.5 -34.5t18.5 -29.5q13 -15 31.5 -23.5t39.5 -8.5h64q13 0 22.5 -9.5t9.5 -22.5t-9.5 -22.5t-22.5 -9.5h-128q-13 0 -22.5 -9.5t-9.5 -22.5t9.5 -22.5t22.5 -9.5h128q40 0 68 28t28 68q0 18 -6.5 34.5t-18.5 29.5q-13 15 -31.5 23.5
t-39.5 8.5v0z" />
    <glyph glyph-name="uniEA6D" unicode="text&#x2d;color" 
d="M322 128l58 192h264l58 -192h114l-192 640h-224l-192 -640h114v0zM476 640h72l58 -192h-188l58 192v0z" />
    <glyph glyph-name="uniEA6E" unicode="pagebreak" 
d="M256 576v384h768v-384h-64v320h-640v-320h-64zM1024 384v-448h-768v448h64v-384h640v384h64zM512 512h128v-64h-128v64zM320 512h128v-64h-128v64zM704 512h128v-64h-128v64zM896 512h128v-64h-128v64zM0 672l192 -192l-192 -192v384z" />
    <glyph glyph-name="uniEA6F" unicode="clear&#x2d;formatting" 
d="M0 64h576v-128h-576v128zM896 832h-303l-183 -704h-133l184 704h-269v128h704v-128zM930 -64l-130 130l-130 -130l-62 62l130 130l-130 130l62 62l130 -130l130 130l62 -62l-130 -130l130 -130z" />
    <glyph glyph-name="uniEA70" unicode="table" 
d="M0 768v-704h1024v704h-1024v0zM384 320v128h256v-128h-256v0zM640 256v-128h-256v128h256v0zM640 640v-128h-256v128h256v0zM320 640v-128h-256v128h256v0zM64 448h256v-128h-256v128v0zM704 448h256v-128h-256v128v0zM704 512v128h256v-128h-256v0zM64 256h256v-128
h-256v128v0zM704 128v128h256v-128h-256v0z" />
    <glyph glyph-name="uniEA71" unicode="table&#x32;" 
d="M0 896v-896h1024v896h-1024v0zM384 320v192h256v-192h-256v0zM640 256v-192h-256v192h256v0zM640 768v-192h-256v192h256v0zM320 768v-192h-256v192h256v0zM64 512h256v-192h-256v192v0zM704 512h256v-192h-256v192v0zM704 576v192h256v-192h-256v0zM64 256h256v-192
h-256v192v0zM704 64v192h256v-192h-256v0z" />
    <glyph glyph-name="uniEA72" unicode="insert&#x2d;template" 
d="M384 768h128v-64h-128v64zM576 768h128v-64h-128v64zM896 768v-256h-192v64h128v128h-64v64h128zM320 576h128v-64h-128v64zM512 576h128v-64h-128v64zM192 704v-128h64v-64h-128v256h192v-64h-128zM384 384h128v-64h-128v64zM576 384h128v-64h-128v64zM896 384v-256
h-192v64h128v128h-64v64h128zM320 192h128v-64h-128v64zM512 192h128v-64h-128v64zM192 320v-128h64v-64h-128v256h192v-64h-128zM960 896h-896v-896h896v896v0zM1024 960v0v-1024h-1024v1024h1024v0z" />
    <glyph glyph-name="uniEA73" unicode="pilcrow" 
d="M384 960h512v-128h-128v-896h-128v896h-128v-896h-128v512q-53 0 -99.5 20t-81.5 55t-55 81.5t-20 99.5t20 99.5t55 81.5t81.5 55t99.5 20v0z" />
    <glyph glyph-name="uniEA74" unicode="ltr" 
d="M512 960q-53 0 -99.5 -20t-81.5 -55t-55 -81.5t-20 -99.5t20 -99.5t55 -81.5t81.5 -55t99.5 -20v-512h128v896h128v-896h128v896h128v128h-512v0zM0 256l256 256l-256 256v-512z" />
    <glyph glyph-name="uniEA75" unicode="rtl" 
d="M256 960q-53 0 -99.5 -20t-81.5 -55t-55 -81.5t-20 -99.5t20 -99.5t55 -81.5t81.5 -55t99.5 -20v-512h128v896h128v-896h128v896h128v128h-512v0zM1024 768l-256 -256l256 -256v512z" />
    <glyph glyph-name="uniEA76" unicode="section" 
d="M496 -64q-37 0 -68 11t-56 32t-37.5 46t-12.5 53q0 14 5 25.5t14 21.5q10 9 22.5 14t25.5 5q14 0 26 -4.5t21 -13.5t14 -21t5 -26q0 -9 -1.5 -18t-4.5 -19q-2 -10 -3 -15.5t-1 -8.5q0 -2 1.5 -5.5t6.5 -6.5q9 -7 21 -10.5t26 -3.5q17 0 32 6t29 18t21 24.5t7 26.5t-4 27
t-12 25q-14 19 -40 41.5t-63 47.5q-60 41 -100 76t-62 66q-18 24 -26.5 50.5t-8.5 54.5q0 27 9 55t27 54q16 23 38.5 43.5t51.5 38.5q-15 17 -27 33t-20 31q-9 19 -14 38t-5 38q0 36 14 67t42 56t63 38t75 13q38 0 69.5 -10.5t56.5 -31.5t37.5 -45.5t12.5 -51.5
q0 -14 -5.5 -26.5t-15.5 -23.5v0q-6 -6 -17.5 -12t-29.5 -6q-15 0 -27 5t-22 13q-9 9 -14 19.5t-5 22.5q0 6 1.5 14t4.5 19q1 6 1.5 11t0.5 10q0 7 -2.5 13.5t-8.5 11.5q-7 5 -16 7.5t-21 2.5q-18 0 -33.5 -6t-28.5 -17q-13 -12 -19.5 -26t-6.5 -31q0 -15 3.5 -27.5
t10.5 -21.5q13 -18 35 -37.5t53 -39.5q63 -41 107 -78.5t68 -70.5q17 -25 26 -51t9 -54q0 -27 -9 -54.5t-26 -54.5q-16 -24 -38.5 -45t-52.5 -39q16 -18 28 -33.5t19 -28.5q9 -18 13.5 -36.5t4.5 -38.5q0 -37 -14 -68.5t-42 -56.5q-28 -26 -62.5 -38.5t-75.5 -12.5v0z
M446 604q-36 -22 -53.5 -47t-17.5 -55q0 -17 5 -32.5t15 -29.5q15 -21 44 -46.5t72 -54.5l35.5 -25l30.5 -23q37 22 55 47t18 53q0 15 -6 31.5t-18 34.5q-13 18 -40 41.5t-67 52.5q-22 14 -40 27.5l-33 25.5v0z" />
    <glyph glyph-name="uniEA77" unicode="paragraph&#x2d;left" 
d="M0 896h1024v-128h-1024v128zM0 704h640v-128h-640v128zM0 320h640v-128h-640v128zM0 512h1024v-128h-1024v128zM0 128h1024v-128h-1024v128z" />
    <glyph glyph-name="uniEA78" unicode="paragraph&#x2d;center" 
d="M0 896h1024v-128h-1024v128zM192 704h640v-128h-640v128zM192 320h640v-128h-640v128zM0 512h1024v-128h-1024v128zM0 128h1024v-128h-1024v128z" />
    <glyph glyph-name="uniEA79" unicode="paragraph&#x2d;right" 
d="M0 896h1024v-128h-1024v128zM384 704h640v-128h-640v128zM384 320h640v-128h-640v128zM0 512h1024v-128h-1024v128zM0 128h1024v-128h-1024v128z" />
    <glyph glyph-name="uniEA7A" unicode="paragraph&#x2d;justify" 
d="M0 896h1024v-128h-1024v128zM0 704h1024v-128h-1024v128zM0 512h1024v-128h-1024v128zM0 320h1024v-128h-1024v128zM0 128h1024v-128h-1024v128z" />
    <glyph glyph-name="uniEA7B" unicode="indent&#x2d;increase" 
d="M0 896h1024v-128h-1024v128zM384 704h640v-128h-640v128zM384 512h640v-128h-640v128zM384 320h640v-128h-640v128zM0 128h1024v-128h-1024v128zM0 256v384l256 -192z" />
    <glyph glyph-name="uniEA7C" unicode="indent&#x2d;decrease" 
d="M0 896h1024v-128h-1024v128zM384 704h640v-128h-640v128zM384 512h640v-128h-640v128zM384 320h640v-128h-640v128zM0 128h1024v-128h-1024v128zM256 640v-384l-256 192z" />
    <glyph glyph-name="uniEA7D" unicode="out" 
d="M256 320l14.5 30t56 66t116.5 66t197 30v-192l384 256l-384 256v-192q-96 0 -168 -27.5t-120 -72.5t-72 -102.5t-24 -117.5v0zM704 192h-576v384h126q7 9 15.5 17.5l16.5 16.5q33 31 72.5 54.5t83.5 39.5h-442v-640h832v269l-128 -86v-55v0z" />
    <glyph glyph-name="uniEA7E" unicode="new&#x2d;tab" 
d="M192 896v-768h768v768h-768v0zM896 192h-640v640h640v-640v0zM128 64v672l-64 64v-800h800l-64 64h-672v0zM352 704l160 -160l-192 -192l96 -96l192 192l160 -160v416h-416z" />
    <glyph glyph-name="uniEA7F" unicode="code" 
d="M576 224l96 -96l320 320l-320 320l-96 -96l224 -224zM448 672l-96 96l-320 -320l320 -320l96 96l-224 224z" />
    <glyph glyph-name="uniEA80" unicode="code&#x32;" horiz-adv-x="1280" 
d="M832 224l96 -96l320 320l-320 320l-96 -96l224 -224zM448 672l-96 96l-320 -320l320 -320l96 96l-224 224zM701 809l70 -18l-192 -704l-70 18l192 704v0z" />
    <glyph glyph-name="uniEA81" unicode="console" 
d="M0 896v-896h1024v896h-1024v0zM960 64h-896v768h896v-768v0zM896 768h-768v-640h768v640v0zM448 448h-64v-64h-64v-64h-64v64h64v64h64v64h-64v64h-64v64h64v-64h64v-64h64v-64v0zM704 320h-192v64h192v-64v0z" />
    <glyph glyph-name="uniEA82" unicode="social" 
d="M864 256q-34 0 -63.5 -13t-51.5 -36l-431 216q1 6 1.5 12.5t0.5 12.5t-0.5 12.5t-1.5 12.5l431 216q22 -23 51.5 -36t63.5 -13q66 0 113 47t47 113t-47 113t-113 47t-113 -47t-47 -113q0 -6 0.5 -12.5t1.5 -12.5l-431 -216q-22 23 -51.5 36t-63.5 13q-66 0 -113 -47
t-47 -113t47 -113t113 -47q34 0 63.5 13t51.5 36l431 -216q-1 -6 -1.5 -12.5t-0.5 -12.5q0 -66 47 -113t113 -47t113 47t47 113t-47 113t-113 47v0z" />
    <glyph glyph-name="uniEA83" unicode="contact&#x32;" 
d="M853 960h-682q-71 0 -121 -50t-50 -121v-682q0 -71 50 -121t121 -50h682q71 0 121 50t50 121v682q0 71 -50 121t-121 50v0zM256 704h512q7 0 13.5 -1.5t12.5 -4.5l-282 -329l-282 329q6 3 12.5 4.5t13.5 1.5v0zM192 256v384v2v2l188 -219l-186 -186q-1 4 -1.5 8.5
t-0.5 8.5v0zM768 192h-512q-4 0 -8.5 0.5t-8.5 1.5l183 182l90 -105l90 105l183 -182q-4 -1 -8.5 -1.5t-8.5 -0.5v0zM832 256q0 -4 -0.5 -8.5t-1.5 -8.5l-186 186l188 219v-2v-2v-384v0z" />
    <glyph glyph-name="uniEA84" unicode="contact&#x33;" 
d="M853 960h-682q-71 0 -121 -50t-50 -121v-682q0 -71 50 -121t121 -50h682q71 0 121 50t50 121v682q0 71 -50 121t-121 50v0zM853 832q6 0 12 -1.5t10 -4.5l-363 -301l-363 301q5 3 10.5 4.5t11.5 1.5h682v0zM171 64h-3.5h-2.5l226 313l-30 30l-233 -234v611l384 -464
l384 464v-611l-233 234l-30 -30l226 -313h-2.5h-3.5h-682v0z" />
    <glyph glyph-name="uniEA85" unicode="contact&#x34;" 
d="M853 960h-682q-71 0 -121 -50t-50 -121v-682q0 -71 50 -121t121 -50h682q71 0 121 50t50 121v682q0 71 -50 121t-121 50v0zM183 73l-78 78l256 256l30 -30l-208 -304v0zM153 761l30 30l329 -266l329 266l30 -30l-359 -422l-359 422v0zM841 73l-208 304l30 30l256 -256
l-78 -78v0z" />
    <glyph glyph-name="uniEA86" unicode="contact&#x35;" 
d="M512 960q-106 0 -199.5 -40t-163 -109.5t-109.5 -163t-40 -199.5t40 -199.5t109.5 -163t163 -109.5t199.5 -40t199.5 40t163 109.5t109.5 163t40 199.5t-40 199.5t-109.5 163t-163 109.5t-199.5 40v0zM256 704h512q7 0 13.5 -1.5t12.5 -4.5l-282 -329l-282 329
q6 3 12.5 4.5t13.5 1.5v0zM192 256v384v2v2l188 -219l-186 -186q-1 4 -1.5 8.5t-0.5 8.5v0zM768 192h-512q-4 0 -8.5 0.5t-8.5 1.5l183 182l90 -105l90 105l183 -182q-4 -1 -8.5 -1.5t-8.5 -0.5v0zM832 256q0 -4 -0.5 -8.5t-1.5 -8.5l-186 186l188 219v-2v-2v-384v0z" />
    <glyph glyph-name="uniEA87" unicode="ama&#x7a;on" 
d="M926 75q-42 -31 -92.5 -55t-104.5 -40t-109.5 -24t-108.5 -8q-74 0 -143.5 13t-133.5 38t-121.5 61t-107.5 81q-8 7 -3 14t14 1q54 -31 114 -56t124.5 -42.5t132 -26.5t136.5 -9q46 0 94.5 5t98 14.5t98 24.5t95.5 35q14 6 22.5 -5t-5.5 -21v0zM972 128q-11 14 -57.5 11
t-73.5 -7q-8 -1 -9 4.5t6 11.5q49 33 111 30.5t71 -13.5q9 -12 -4.5 -73t-58.5 -98q-7 -6 -12 -3.5t-2 9.5q10 26 25 70t4 58v0zM707 202h1q18 17 46.5 41.5l47.5 40.5q8 6 7 15t-6 18q-17 23 -32 47t-15 67v192q0 61 -4.5 115.5t-49.5 96.5q-36 34 -88.5 47.5t-97.5 13.5
q-44 0 -88.5 -9t-82.5 -31t-66 -58t-38 -91q-2 -11 4.5 -17.5t13.5 -7.5l120 -13q8 0 13.5 7t7.5 15q8 38 36 56t63 18q19 0 38.5 -7t30.5 -25q13 -19 14 -43t1 -46v-16l-117 -13.5t-114 -29.5q-58 -25 -95 -75.5t-37 -125.5q0 -96 53.5 -144t131.5 -48q65 0 108.5 19
t94.5 71l27.5 -40.5t42.5 -41.5q7 -4 15 -3.5t14 5.5v0zM583 503q0 -36 -2.5 -67.5t-20.5 -63.5q-14 -26 -36.5 -41t-48.5 -15q-35 0 -55 25t-20 64q0 79 58.5 101.5t124.5 22.5v-26v0z" />
    <glyph glyph-name="uniEA88" unicode="brand&#x32;" 
d="M522 521v-175h291q-5 -29 -22.5 -67t-51.5 -72t-87.5 -58t-129.5 -24q-65 0 -123 25.5t-101 69t-68 102.5t-25 126t25 126t68 102.5t101 69t123 25.5q75 0 125.5 -25.5t78.5 -53.5l139 134q-33 31 -71.5 56t-81.5 42.5t-90.5 26.5t-99.5 9q-106 0 -199 -40t-162.5 -109.5
t-110 -163t-40.5 -199.5t40.5 -199.5t110 -163t162.5 -109.5t199 -40q111 0 201.5 37t155 103.5t100 158.5t35.5 201q0 25 -2.5 45.5t-5.5 39.5h-484v0z" />
    <glyph glyph-name="uniEA89" unicode="brand&#x33;" 
d="M928 960h-832q-40 0 -68 -28t-28 -68v-832q0 -40 28 -68t68 -28h832q40 0 68 28t28 68v832q0 40 -28 68t-68 28v0zM520 64q-80 0 -150 30t-122 82.5t-82 122t-30 149.5t30 149.5t82 122t122 82.5t150 30q77 0 142 -26.5t115 -73.5l-104 -101q-22 21 -59.5 40t-93.5 19
q-50 0 -93 -19t-75.5 -52t-51 -77t-18.5 -94t18.5 -94t51 -77t75.5 -52t93 -19q114 0 162.5 61.5t54.5 103.5h-217v132h362q3 -15 4.5 -30t1.5 -34q0 -82 -26.5 -151t-74.5 -118.5t-116 -77.5t-151 -28v0z" />
    <glyph glyph-name="uniEA8A" unicode="brand&#x34;" 
d="M512 960q-106 0 -199.5 -40t-163 -109.5t-109.5 -163t-40 -199.5t40 -199.5t109.5 -163t163 -109.5t199.5 -40t199.5 40t163 109.5t109.5 163t40 199.5t-40 199.5t-109.5 163t-163 109.5t-199.5 40v0zM520 64q-80 0 -150 30t-122 82.5t-82 122t-30 149.5t30 149.5t82 122
t122 82.5t150 30q77 0 142 -26.5t115 -73.5l-104 -101q-22 21 -59.5 40t-93.5 19q-50 0 -93 -19t-75.5 -52t-51 -77t-18.5 -94t18.5 -94t51 -77t75.5 -52t93 -19q114 0 162.5 61.5t54.5 103.5h-217v132h362q3 -15 4.5 -30t1.5 -34q0 -82 -26.5 -151t-74.5 -118.5t-116 -77.5
t-151 -28v0z" />
    <glyph glyph-name="uniEA8B" unicode="brand&#x35;" 
d="M326 503v-112h185q-6 -36 -47 -88.5t-138 -52.5q-42 0 -78.5 16.5t-64 44t-43.5 65t-16 80.5t16 80.5t43.5 65t64 44t78.5 16.5q47 0 79 -16.5t51 -33.5l88 85q-43 40 -97.5 62.5t-120.5 22.5q-68 0 -127 -25.5t-103.5 -70t-70 -103.5t-25.5 -127t25.5 -127t70 -103.5
t103.5 -70t127 -25.5q70 0 128 23.5t99 66t63.5 101t22.5 128.5q0 16 -1.5 28.5t-4.5 25.5h-307v0zM1024 512h-96v96h-96v-96h-96v-96h96v-96h96v96h96v96z" />
    <glyph glyph-name="uniEA8C" unicode="brand&#x36;" 
d="M928 960h-832q-40 0 -68 -28t-28 -68v-832q0 -40 28 -68t68 -28h832q40 0 68 28t28 68v832q0 40 -28 68t-68 28v0zM384 192q-53 0 -99.5 20t-81.5 55t-55 81.5t-20 99.5t20 99.5t55 81.5t81.5 55t99.5 20q52 0 95 -18t77 -49l-70 -67q-14 14 -39.5 27t-62.5 13
q-66 0 -112.5 -47.5t-46.5 -114.5t46.5 -114.5t112.5 -47.5q76 0 108.5 41.5t36.5 69.5h-145v88h242q1 -10 2.5 -20t1.5 -23q0 -55 -17.5 -101t-50 -79t-78 -51.5t-100.5 -18.5v0zM896 448h-64v-64h-64v64h-64v64h64v64h64v-64h64v-64v0z" />
    <glyph glyph-name="uniEA8D" unicode="brand&#x37;" 
d="M512 960q-106 0 -199.5 -40t-163 -109.5t-109.5 -163t-40 -199.5t40 -199.5t109.5 -163t163 -109.5t199.5 -40t199.5 40t163 109.5t109.5 163t40 199.5t-40 199.5t-109.5 163t-163 109.5t-199.5 40v0zM384 192q-53 0 -99.5 20t-81.5 55t-55 81.5t-20 99.5t20 99.5
t55 81.5t81.5 55t99.5 20q52 0 95 -18t77 -49l-70 -67q-14 14 -39.5 27t-62.5 13q-66 0 -112.5 -47.5t-46.5 -114.5t46.5 -114.5t112.5 -47.5q76 0 108.5 41.5t36.5 69.5h-145v88h242q1 -10 2.5 -20t1.5 -23q0 -55 -17.5 -101t-50 -79t-78 -51.5t-100.5 -18.5v0zM832 448
v-64h-64v64h-64v64h64v64h64v-64h64v-64h-64v0z" />
    <glyph glyph-name="uniEA8E" unicode="brand&#x38;" 
d="M512 960q-92 0 -172.5 -35t-140.5 -95t-94.5 -140.5t-34.5 -171.5q0 -87 36.5 -163.5t97.5 -133t141 -89.5t167 -33v-163q101 51 182.5 116.5t139.5 140.5t89 157.5t31 167.5q0 91 -34.5 171.5t-94.5 140.5t-141 95t-172 35v0zM448 448q0 -40 -18.5 -68t-45.5 -28v96
h-128v192h192v-192v0zM768 448q0 -40 -18.5 -68t-45.5 -28v96h-128v192h192v-192v0z" />
    <glyph glyph-name="uniEA8F" unicode="brand&#x39;" 
d="M438 320l-185 -320h581l185 320h-581zM992 384l-295 512h-370l296 -512h369zM290 832l-290 -503l185 -320l290 503z" />
    <glyph glyph-name="uniEA90" unicode="brand&#x31;&#x30;" 
d="M608 768h160v192h-160q-46 0 -87 -17.5t-71.5 -48t-48 -71.5t-17.5 -87v-96h-128v-192h128v-512h192v512h160l32 192h-192v96q0 13 9.5 22.5t22.5 9.5v0z" />
    <glyph glyph-name="uniEA91" unicode="brand&#x31;&#x31;" 
d="M928 960h-832q-40 0 -68 -28t-28 -68v-832q0 -40 28 -68t68 -28h416v448h-128v128h128v64q0 79 56.5 135.5t135.5 56.5h128v-128h-128q-26 0 -45 -19t-19 -45v-64h192l-32 -128h-160v-448h288q40 0 68 28t28 68v832q0 40 -28 68t-68 28v0z" />
    <glyph glyph-name="uniEA92" unicode="brand&#x31;&#x32;" 
d="M928 960h-832q-40 0 -68 -28t-28 -68v-832q0 -40 28 -68t68 -28h832q40 0 68 28t28 68v832q0 40 -28 68t-68 28v0zM704 800q0 13 9.5 22.5t22.5 9.5h128q13 0 22.5 -9.5t9.5 -22.5v-128q0 -13 -9.5 -22.5t-22.5 -9.5h-128q-13 0 -22.5 9.5t-9.5 22.5v128v0zM512 640
q79 0 135.5 -56t56.5 -136q0 -79 -56 -135.5t-136 -56.5q-79 0 -135.5 56t-56.5 136q0 79 56 135.5t136 56.5v0zM896 96v0q0 -13 -9.5 -22.5t-22.5 -9.5h-704q-13 0 -22.5 9.5t-9.5 22.5v0v416h70q-3 -15 -4.5 -31t-1.5 -33q0 -66 25 -124.5t68.5 -102t102 -68.5t124.5 -25
t124.5 25t102 68.5t68.5 102t25 124.5q0 16 -1.5 32.5t-4.5 31.5h70v-416v0z" />
    <glyph glyph-name="uniEA93" unicode="brand&#x31;&#x33;" 
d="M873 811q-36 36 -77.5 64t-87 46.5t-94.5 28.5t-100 10q-105 0 -197.5 -40t-161 -109t-108.5 -161t-40 -197q0 -67 17 -131.5t51 -122.5l-72 -263l269 71q55 -31 116.5 -46.5t125.5 -15.5v0v0v0q105 0 197.5 40t161.5 108.5t109 161t40 197.5q0 51 -10 100t-29 94.5
t-46.5 87t-63.5 77.5v0zM514 30v0q-57 0 -111.5 15t-103.5 44l-15 9l-160 -41l43 155l-10 16q-32 50 -48.5 107.5t-16.5 117.5q0 87 33.5 163.5t90.5 134t134 90.5t164 33q43 0 83.5 -8t78.5 -23.5t72.5 -38.5t64.5 -53q29 -30 52 -64.5t39 -72.5t24 -78.5t8 -83.5
q0 -87 -33.5 -164t-90.5 -134t-134 -90.5t-164 -33.5v0zM745 346q-9 5 -43 21.5t-43 20.5q-9 3 -15.5 3t-13.5 -10q-6 -9 -20 -26l-20 -24q-6 -6 -12 -7t-15 4q-10 5 -38 18t-64 45q-29 25 -47 52l-24 36t-2.5 15t8.5 11q4 4 9 10l10 12q4 6 6.5 10.5t5.5 10.5t2.5 12
t-3.5 10l-16.5 40.5l-22.5 54.5q-7 18 -15 19.5t-13 1.5q-6 1 -12 1h-13q-6 0 -15.5 -3.5t-17.5 -12.5q-9 -9 -27 -34t-18 -72t23.5 -86t28.5 -45q2 -3 18.5 -25.5t44.5 -52.5t67 -61.5t87 -51.5q22 -10 40 -16.5t32 -10.5q23 -7 43 -7.5t37 2.5q18 3 47.5 20.5t37.5 39.5
t9 39t-1 21q-3 4 -9 7.5t-16 7.5v0z" />
    <glyph glyph-name="uniEA94" unicode="brand&#x31;&#x34;" 
d="M512 960q-106 0 -199 -40.5t-162.5 -110t-110 -162.5t-40.5 -199t40.5 -199t110 -162.5t162.5 -110t199 -40.5t199 40.5t162.5 110t110 162.5t40.5 199t-40 199t-109.5 162.5t-162.5 110t-200 40.5v0zM748 220q-8 -11 -20 -14.5t-24 4.5q-45 28 -96 44.5t-107.5 23
t-118 1.5t-129.5 -20q-13 -4 -23.5 3.5t-14.5 19.5q-4 13 3.5 23.5t19.5 14.5q73 16 141 21t130.5 -2t119 -26t106.5 -49q13 -6 15.5 -19t-2.5 -25v0zM809 361q-10 -13 -25 -17.5t-29 4.5q-52 32 -115 52.5t-130.5 28t-135.5 2.5t-128 -24q-15 -4 -30 3t-19 23
q-4 15 3.5 29.5t22.5 18.5q70 21 146.5 26.5t152 -3.5t146.5 -32t131 -60q11 -6 15.5 -22t-5.5 -29v0zM814 504q-61 37 -139.5 57.5t-160 27t-158.5 0t-136 -25.5q-19 -5 -36 4.5t-23 26.5q-5 19 4.5 36t26.5 23q68 20 155 27.5t177.5 0t179 -31t159.5 -65.5q17 -10 22 -30
t-4 -37q-10 -13 -30 -17.5t-37 4.5v0z" />
    <glyph glyph-name="uniEA95" unicode="brand&#x31;&#x35;" 
d="M512 960q-106 0 -199.5 -40t-163 -109.5t-109.5 -163t-40 -199.5t40 -199.5t109.5 -163t163 -109.5t199.5 -40t199.5 40t163 109.5t109.5 163t40 199.5t-40 199.5t-109.5 163t-163 109.5t-199.5 40v0zM764 609l-84 -396q-5 -21 -17 -26t-30 4l-128 95l-61 -60l-11 -9
t-15 -4q-12 0 -13.5 5.5t-5.5 16.5l-44 144l-126 39q-21 6 -20.5 18.5t26.5 22.5l493 190q17 8 29.5 -3t6.5 -37v0z" />
    <glyph glyph-name="uniEA96" unicode="brand&#x31;&#x36;" 
d="M1024 734q-28 -13 -58.5 -21.5t-62.5 -11.5q33 19 57 49t36 67q-31 -18 -64.5 -31t-69.5 -20q-28 30 -68 48t-85 18q-43 0 -81.5 -16.5t-67 -45t-45 -66.5t-16.5 -82q0 -12 1.5 -24t3.5 -24q-65 3 -126.5 20t-116.5 45.5t-103 67.5t-87 87q-13 -23 -20.5 -50t-7.5 -56
q0 -54 25.5 -100t67.5 -75q-25 1 -49.5 8t-45.5 19v-1.5v-1.5q0 -76 48.5 -134t120.5 -72q-13 -4 -27 -5.5t-29 -1.5q-10 0 -19.5 1l-19.5 2q20 -62 73.5 -103t122.5 -43q-54 -42 -120.5 -66t-140.5 -24q-13 0 -25.5 1l-24.5 2q35 -22 73 -39.5t78.5 -29.5t83.5 -18.5
t87 -6.5q145 0 256.5 54.5t187.5 140.5t115 192.5t39 210.5q0 7 -0.5 13.5t-0.5 13.5q31 22 57.5 49.5t47.5 59.5v0z" />
    <glyph glyph-name="uniEA97" unicode="brand&#x31;&#x37;" 
d="M961 451q-20 -4 -39 -6.5t-36 -2.5q-48 0 -90 16.5t-73 48.5t-48.5 78t-17.5 104t20.5 87.5t51.5 29.5q30 0 48.5 -27t18.5 -81q0 -31 -6.5 -62.5t-12.5 -51.5l33.5 -32t114.5 -16q18 38 27 85t9 91q0 59 -15 105t-43.5 78t-71 48.5t-97.5 16.5q-56 0 -100.5 -20.5
t-75.5 -56.5t-47 -85t-16 -107q0 -56 13 -108t37 -96t59 -79t79 -57q-37 -74 -82.5 -137.5t-94.5 -112.5q-44 54 -85.5 118.5t-76.5 148.5t-62.5 191.5t-44.5 246.5h-174q30 -232 85 -389t113.5 -255.5t110 -147t75.5 -62.5q27 -16 51 -16t49 14q19 11 55 44t78 81.5
t84.5 110t74.5 129.5q27 0 58.5 3.5t63.5 10.5v122v0z" />
    </font>
</defs>
</svg>
